  0
SECTION
  2
HEADER
  9
$ACADVER
  1
AC1018
  9
$ACADMAINTVER
 70
     0
  9
$DWGCODEPAGE
  3
ANSI_1252
  9
$TITLE
  1

  9
$SUBJECT
  1

  9
$AUTHOR
  1
Chuck Warren
  9
$KEYWORDS
  1

  9
$COMMENTS
  1

  9
$REVISIONNUMBER
  1
1
  9
$INSBASE
 10
0.0
 20
0.0
 30
0.0
  9
$EXTMIN
 10
0.0
 20
0.0
 30
0.0
  9
$EXTMAX
 10
354.838
 20
274.193
 30
0.0
  9
$LIMMIN
 10
0.0
 20
0.0
  9
$LIMMAX
 10
354.838
 20
274.193
  9
$ORTHOMODE
 70
     0
  9
$REGENMODE
 70
     1
  9
$FILLMODE
 70
     1
  9
$QTEXTMODE
 70
     0
  9
$MIRRTEXT
 70
     0
  9
$LTSCALE
 40
1.0
  9
$ATTMODE
 70
     1
  9
$TEXTSIZE
 40
0.2
  9
$TRACEWID
 40
0.05
  9
$TEXTSTYLE
  7
Standard
  9
$CLAYER
  8
0
  9
$CELTYPE
  6
ByLayer
  9
$CECOLOR
 62
   256
  9
$CELTSCALE
 40
1.0
  9
$DISPSILH
 70
     0
  9
$DIMSCALE
 40
1.0
  9
$DIMASZ
 40
1.799999999999999
  9
$DIMEXO
 40
0.0625
  9
$DIMDLI
 40
0.38
  9
$DIMRND
 40
0.0
  9
$DIMDLE
 40
0.0
  9
$DIMEXE
 40
0.18
  9
$DIMTP
 40
0.0
  9
$DIMTM
 40
0.0
  9
$DIMTXT
 40
0.3048000037670135
  9
$DIMCEN
 40
0.09
  9
$DIMTSZ
 40
0.0
  9
$DIMTOL
 70
     0
  9
$DIMLIM
 70
     0
  9
$DIMTIH
 70
     1
  9
$DIMTOH
 70
     1
  9
$DIMSE1
 70
     0
  9
$DIMSE2
 70
     0
  9
$DIMTAD
 70
     0
  9
$DIMZIN
 70
     0
  9
$DIMBLK
  1

  9
$DIMASO
 70
     1
  9
$DIMSHO
 70
     1
  9
$DIMPOST
  1

  9
$DIMAPOST
  1

  9
$DIMALT
 70
     0
  9
$DIMALTD
 70
     2
  9
$DIMALTF
 40
25.4
  9
$DIMLFAC
 40
1.0
  9
$DIMTOFL
 70
     0
  9
$DIMTVP
 40
0.0
  9
$DIMTIX
 70
     0
  9
$DIMSOXD
 70
     0
  9
$DIMSAH
 70
     0
  9
$DIMBLK1
  1

  9
$DIMBLK2
  1

  9
$DIMSTYLE
  2
Standard
  9
$DIMCLRD
 70
     0
  9
$DIMCLRE
 70
     0
  9
$DIMCLRT
 70
     0
  9
$DIMTFAC
 40
1.0
  9
$DIMGAP
 40
0.09
  9
$DIMJUST
 70
     0
  9
$DIMSD1
 70
     0
  9
$DIMSD2
 70
     0
  9
$DIMTOLJ
 70
     1
  9
$DIMTZIN
 70
     0
  9
$DIMALTZ
 70
     0
  9
$DIMALTTZ
 70
     0
  9
$DIMUPT
 70
     0
  9
$DIMDEC
 70
     4
  9
$DIMTDEC
 70
     4
  9
$DIMALTU
 70
     2
  9
$DIMALTTD
 70
     2
  9
$DIMTXSTY
  7
Standard
  9
$DIMAUNIT
 70
     0
  9
$DIMADEC
 70
     0
  9
$DIMALTRND
 40
0.0
  9
$DIMAZIN
 70
     0
  9
$DIMDSEP
 70
    46
  9
$DIMATFIT
 70
     3
  9
$DIMFRAC
 70
     0
  9
$DIMLDRBLK
  1

  9
$DIMLUNIT
 70
     2
  9
$DIMLWD
 70
    -2
  9
$DIMLWE
 70
    -2
  9
$DIMTMOVE
 70
     0
  9
$LUNITS
 70
     2
  9
$LUPREC
 70
     4
  9
$SKETCHINC
 40
0.1
  9
$FILLETRAD
 40
0.0
  9
$AUNITS
 70
     0
  9
$AUPREC
 70
     0
  9
$MENU
  1
.
  9
$ELEVATION
 40
0.0
  9
$PELEVATION
 40
0.0
  9
$THICKNESS
 40
0.0
  9
$LIMCHECK
 70
     0
  9
$CHAMFERA
 40
0.0
  9
$CHAMFERB
 40
0.0
  9
$CHAMFERC
 40
0.0
  9
$CHAMFERD
 40
0.0
  9
$SKPOLY
 70
     0
  9
$TDCREATE
 40
2454174.878773577
  9
$TDUCREATE
 40
2454175.087106910
  9
$TDUPDATE
 40
2454174.878773577
  9
$TDUUPDATE
 40
2454175.087106910
  9
$TDINDWG
 40
0.0000497338
  9
$TDUSRTIMER
 40
0.0000497338
  9
$USRTIMER
 70
     1
  9
$ANGBASE
 50
0.0
  9
$ANGDIR
 70
     0
  9
$PDMODE
 70
     0
  9
$PDSIZE
 40
0.0
  9
$PLINEWID
 40
0.0
  9
$SPLFRAME
 70
     0
  9
$SPLINETYPE
 70
     6
  9
$SPLINESEGS
 70
     8
  9
$HANDSEED
  5
45D
  9
$SURFTAB1
 70
     6
  9
$SURFTAB2
 70
     6
  9
$SURFTYPE
 70
     6
  9
$SURFU
 70
     6
  9
$SURFV
 70
     6
  9
$UCSBASE
  2

  9
$UCSNAME
  2

  9
$UCSORG
 10
0.0
 20
0.0
 30
0.0
  9
$UCSXDIR
 10
1.0
 20
0.0
 30
0.0
  9
$UCSYDIR
 10
0.0
 20
1.0
 30
0.0
  9
$UCSORTHOREF
  2

  9
$UCSORTHOVIEW
 70
     0
  9
$UCSORGTOP
 10
0.0
 20
0.0
 30
0.0
  9
$UCSORGBOTTOM
 10
0.0
 20
0.0
 30
0.0
  9
$UCSORGLEFT
 10
0.0
 20
0.0
 30
0.0
  9
$UCSORGRIGHT
 10
0.0
 20
0.0
 30
0.0
  9
$UCSORGFRONT
 10
0.0
 20
0.0
 30
0.0
  9
$UCSORGBACK
 10
0.0
 20
0.0
 30
0.0
  9
$PUCSBASE
  2

  9
$PUCSNAME
  2

  9
$PUCSORG
 10
0.0
 20
0.0
 30
0.0
  9
$PUCSXDIR
 10
1.0
 20
0.0
 30
0.0
  9
$PUCSYDIR
 10
0.0
 20
1.0
 30
0.0
  9
$PUCSORTHOREF
  2

  9
$PUCSORTHOVIEW
 70
     0
  9
$PUCSORGTOP
 10
0.0
 20
0.0
 30
0.0
  9
$PUCSORGBOTTOM
 10
0.0
 20
0.0
 30
0.0
  9
$PUCSORGLEFT
 10
0.0
 20
0.0
 30
0.0
  9
$PUCSORGRIGHT
 10
0.0
 20
0.0
 30
0.0
  9
$PUCSORGFRONT
 10
0.0
 20
0.0
 30
0.0
  9
$PUCSORGBACK
 10
0.0
 20
0.0
 30
0.0
  9
$USERI1
 70
     0
  9
$USERI2
 70
     0
  9
$USERI3
 70
     0
  9
$USERI4
 70
     0
  9
$USERI5
 70
     0
  9
$USERR1
 40
0.0
  9
$USERR2
 40
0.0
  9
$USERR3
 40
0.0
  9
$USERR4
 40
0.0
  9
$USERR5
 40
0.0
  9
$WORLDVIEW
 70
     1
  9
$SHADEDGE
 70
     3
  9
$SHADEDIF
 70
    70
  9
$TILEMODE
 70
     1
  9
$MAXACTVP
 70
    64
  9
$PINSBASE
 10
0.0
 20
0.0
 30
0.0
  9
$PLIMCHECK
 70
     0
  9
$PEXTMIN
 10
0.0
 20
0.0
 30
0.0
  9
$PEXTMAX
 10
354.838
 20
274.193
 30
0.0
  9
$PLIMMIN
 10
0.0
 20
0.0
  9
$PLIMMAX
 10
354.838
 20
274.193
  9
$UNITMODE
 70
     0
  9
$VISRETAIN
 70
     1
  9
$PLINEGEN
 70
     0
  9
$PSLTSCALE
 70
     1
  9
$TREEDEPTH
 70
  3020
  9
$CMLSTYLE
  2
Standard
  9
$CMLJUST
 70
     0
  9
$CMLSCALE
 40
1.0
  9
$PROXYGRAPHICS
 70
     1
  9
$MEASUREMENT
 70
     0
  9
$CELWEIGHT
370
    -1
  9
$ENDCAPS
280
     0
  9
$JOINSTYLE
280
     0
  9
$LWDISPLAY
290
     0
  9
$INSUNITS
 70
     0
  9
$HYPERLINKBASE
  1

  9
$STYLESHEET
  1

  9
$XEDIT
290
     1
  9
$CEPSNTYPE
380
     0
  9
$PSTYLEMODE
290
     1
  9
$FINGERPRINTGUID
  2
{D40455F2-60C6-47FA-88DF-86BD932910EC}
  9
$VERSIONGUID
  2
{775560E0-69A0-4BD1-B095-1F3033696120}
  9
$EXTNAMES
290
     1
  9
$PSVPSCALE
 40
0.0
  9
$OLESTARTUP
290
     0
  9
$SORTENTS
280
   127
  9
$INDEXCTL
280
     0
  9
$HIDETEXT
280
     1
  9
$XCLIPFRAME
290
     0
  9
$HALOGAP
280
     0
  9
$OBSCOLOR
 70
   257
  9
$OBSLTYPE
280
     0
  9
$INTERSECTIONDISPLAY
280
     0
  9
$INTERSECTIONCOLOR
 70
   257
  9
$DIMASSOC
280
     1
  9
$PROJECTNAME
  1

  0
ENDSEC
  0
SECTION
  2
CLASSES
  0
CLASS
  1
ACDBDICTIONARYWDFLT
  2
AcDbDictionaryWithDefault
  3
ObjectDBX Classes
 90
        0
 91
        1
280
     0
281
     0
  0
ENDSEC
  0
SECTION
  2
TABLES
  0
TABLE
  2
VPORT
  5
8
330
0
100
AcDbSymbolTable
 70
     1
  0
VPORT
  5
13
330
8
100
AcDbSymbolTableRecord
100
AcDbViewportTableRecord
  2
*Active
 70
     0
 10
0.0
 20
0.0
 11
1.0
 21
1.0
 12
177.419
 22
137.0965
 13
0.0
 23
0.0
 14
1.0
 24
1.0
 15
0.0
 25
0.0
 16
0.0
 26
0.0
 36
1.0
 17
0.0
 27
0.0
 37
0.0
 40
274.193
 41
1.294117647058823
 42
50.0
 43
0.0
 44
0.0
 50
0.0
 51
0.0
 71
     0
 72
   100
 73
     1
 74
     1
 75
     0
 76
     0
 77
     0
 78
     0
281
     0
 65
     1
110
0.0
120
0.0
130
0.0
111
1.0
121
0.0
131
0.0
112
0.0
122
1.0
132
0.0
 79
     0
146
0.0
  0
ENDTAB
  0
TABLE
  2
LTYPE
  5
5
330
0
100
AcDbSymbolTable
 70
    59
  0
LTYPE
  5
14
330
5
100
AcDbSymbolTableRecord
100
AcDbLinetypeTableRecord
  2
ByBlock
 70
     0
  3

 72
    65
 73
     0
 40
0.0
  0
LTYPE
  5
15
330
5
100
AcDbSymbolTableRecord
100
AcDbLinetypeTableRecord
  2
ByLayer
 70
     0
  3

 72
    65
 73
     0
 40
0.0
  0
LTYPE
  5
16
330
5
100
AcDbSymbolTableRecord
100
AcDbLinetypeTableRecord
  2
Continuous
 70
     0
  3
Solid line
 72
    65
 73
     0
 40
0.0
  0
LTYPE
  5
2A
330
5
100
AcDbSymbolTableRecord
100
AcDbLinetypeTableRecord
  2
BY_STANDARD
 70
     0
  3
By Standard ____________    ____    ____   _
 72
    65
 73
     6
 40
1.240299999999999
 49
0.6614
 74
     0
 49
-0.0827
 74
     0
 49
0.1654
 74
     0
 49
-0.0827
 74
     0
 49
0.1654
 74
     0
 49
-0.0827
 74
     0
  0
LTYPE
  5
2B
330
5
100
AcDbSymbolTableRecord
100
AcDbLinetypeTableRecord
  2
CHAIN
 70
     0
  3
Chain ____ _ ____ _ ____ _ ____ _ ____ _ ____
 72
    65
 73
     4
 40
0.7087
 49
0.4724000000000001
 74
     0
 49
-0.0591
 74
     0
 49
0.1181
 74
     0
 49
-0.0591
 74
     0
  0
LTYPE
  5
2C
330
5
100
AcDbSymbolTableRecord
100
AcDbLinetypeTableRecord
  2
DASH_DOT
 70
     0
  3
Dash dot __ . __ . __ . __ . __ . __ . __ . __
 72
    65
 73
     4
 40
0.37
 49
0.24
 74
     0
 49
-0.06
 74
     0
 49
0.01
 74
     0
 49
-0.06
 74
     0
  0
LTYPE
  5
2D
330
5
100
AcDbSymbolTableRecord
100
AcDbLinetypeTableRecord
  2
DOUBLE_DASH_DOT
 70
     0
  3
Double-Dash Dot __ __ . __ __ . __ __ . __ _
 72
    65
 73
     6
 40
0.4398
 49
0.24
 74
     0
 49
-0.06
 74
     0
 49
0.0098
 74
     0
 49
-0.06
 74
     0
 49
0.01
 74
     0
 49
-0.06
 74
     0
  0
LTYPE
  5
2E
330
5
100
AcDbSymbolTableRecord
100
AcDbLinetypeTableRecord
  2
DASH_TRIPLE_DOT
 70
     0
  3
Dash Triple-Dot _ . . . _ . . . _ . . . _
 72
    65
 73
     8
 40
0.51
 49
0.24
 74
     0
 49
-0.06
 74
     0
 49
0.01
 74
     0
 49
-0.06
 74
     0
 49
0.01
 74
     0
 49
-0.06
 74
     0
 49
0.01
 74
     0
 49
-0.06
 74
     0
  0
LTYPE
  5
2F
330
5
100
AcDbSymbolTableRecord
100
AcDbLinetypeTableRecord
  2
DASHED
 70
     0
  3
Dashed __ __ __ __ __ __ __ __ __ __ __ __ __ _
 72
    65
 73
     2
 40
0.2067
 49
0.1654
 74
     0
 49
-0.0413
 74
     0
  0
LTYPE
  5
30
330
5
100
AcDbSymbolTableRecord
100
AcDbLinetypeTableRecord
  2
DASH_DOUBLE_DOT
 70
     0
  3
Dash Double-Dot __ . . __ . . __ . . __ . .
 72
    65
 73
     6
 40
0.4398
 49
0.24
 74
     0
 49
-0.06
 74
     0
 49
0.0098
 74
     0
 49
-0.06
 74
     0
 49
0.01
 74
     0
 49
-0.06
 74
     0
  0
LTYPE
  5
31
330
5
100
AcDbSymbolTableRecord
100
AcDbLinetypeTableRecord
  2
DASHED_SPACE
 70
     0
  3
Dashed Space __ __ __ __ __ __ __ __ __ __ __ _
 72
    65
 73
     2
 40
0.2067
 49
0.1654
 74
     0
 49
-0.0413
 74
     0
  0
LTYPE
  5
32
330
5
100
AcDbSymbolTableRecord
100
AcDbLinetypeTableRecord
  2
DOTTED
 70
     0
  3
Dotted . . . . . . . . . . . . . . . . . . . . 
 72
    65
 73
     2
 40
0.0482
 49
0.0069
 74
     0
 49
-0.0413
 74
     0
  0
LTYPE
  5
33
330
5
100
AcDbSymbolTableRecord
100
AcDbLinetypeTableRecord
  2
DOUBLE_DASH_CHAIN
 70
     0
  3
Double-Dash Chain ______  __  __  ______  __  _
 72
    65
 73
     6
 40
1.240299999999999
 49
0.6614
 74
     0
 49
-0.0827
 74
     0
 49
0.1654
 74
     0
 49
-0.0827
 74
     0
 49
0.1654
 74
     0
 49
-0.0827
 74
     0
  0
LTYPE
  5
35
330
5
100
AcDbSymbolTableRecord
100
AcDbLinetypeTableRecord
  2
DOUBLE_DASH_DOUBLE_DOT
 70
     0
  3
Double-Dash Double-dot _ _ . . _ _ . . _
 72
    65
 73
     8
 40
0.7400000000000001
 49
0.24
 74
     0
 49
-0.06
 74
     0
 49
0.24
 74
     0
 49
-0.06
 74
     0
 49
0.01
 74
     0
 49
-0.06
 74
     0
 49
0.01
 74
     0
 49
-0.06
 74
     0
  0
LTYPE
  5
36
330
5
100
AcDbSymbolTableRecord
100
AcDbLinetypeTableRecord
  2
DOUBLE_DASH_TRIPLE_DOT
 70
     0
  3
Double Dash Triple Dot __ __ . . . __ __ . .
 72
    65
 73
    10
 40
0.8100000000000001
 49
0.24
 74
     0
 49
-0.06
 74
     0
 49
0.24
 74
     0
 49
-0.06
 74
     0
 49
0.01
 74
     0
 49
-0.06
 74
     0
 49
0.01
 74
     0
 49
-0.06
 74
     0
 49
0.01
 74
     0
 49
-0.06
 74
     0
  0
LTYPE
  5
37
330
5
100
AcDbSymbolTableRecord
100
AcDbLinetypeTableRecord
  2
LONG_DASH_DOTTED
 70
     0
  3
Long Dash Dotted ____ . ____ . ____ . ____ . _
 72
    65
 73
     4
 40
0.3543
 49
0.2362
 74
     0
 49
-0.0295
 74
     0
 49
0.0591
 74
     0
 49
-0.0295
 74
     0
  0
LTYPE
  5
38
330
5
100
AcDbSymbolTableRecord
100
AcDbLinetypeTableRecord
  2
LONG_DASH_DOUBLE_DOT
 70
     0
  3
Long Dash Double Dot ________  .  .  ________  
 72
    65
 73
     6
 40
0.6799999999999999
 49
0.48
 74
     0
 49
-0.06
 74
     0
 49
0.01
 74
     0
 49
-0.06
 74
     0
 49
0.01
 74
     0
 49
-0.06
 74
     0
  0
LTYPE
  5
39
330
5
100
AcDbSymbolTableRecord
100
AcDbLinetypeTableRecord
  2
LONG_DASH_TRIPLE_DOT
 70
     0
  3
Long Dash Triple Dot ____ ... ____ ... ____
 72
    65
 73
     8
 40
0.3689
 49
0.2362
 74
     0
 49
-0.0295
 74
     0
 49
0.0049
 74
     0
 49
-0.0295
 74
     0
 49
0.0049
 74
     0
 49
-0.0295
 74
     0
 49
0.0049
 74
     0
 49
-0.0295
 74
     0
  0
LTYPE
  5
3A
330
5
100
AcDbSymbolTableRecord
100
AcDbLinetypeTableRecord
  2
BORDER
 70
     0
  3
Border __ __ . __ __ . __ __ . __ __ . __ __ .
 72
    65
 73
     6
 40
1.75
 49
0.5
 74
     0
 49
-0.25
 74
     0
 49
0.5
 74
     0
 49
-0.25
 74
     0
 49
0.0
 74
     0
 49
-0.25
 74
     0
  0
LTYPE
  5
3B
330
5
100
AcDbSymbolTableRecord
100
AcDbLinetypeTableRecord
  2
BORDER2
 70
     0
  3
Border (.5x) __.__.__.__.__.__.__.__.__.__.__.
 72
    65
 73
     6
 40
0.875
 49
0.25
 74
     0
 49
-0.125
 74
     0
 49
0.25
 74
     0
 49
-0.125
 74
     0
 49
0.0
 74
     0
 49
-0.125
 74
     0
  0
LTYPE
  5
3C
330
5
100
AcDbSymbolTableRecord
100
AcDbLinetypeTableRecord
  2
BORDERX2
 70
     0
  3
Border (2x) ____  ____  .  ____  ____  .  ___
 72
    65
 73
     6
 40
3.5
 49
1.0
 74
     0
 49
-0.5
 74
     0
 49
1.0
 74
     0
 49
-0.5
 74
     0
 49
0.0
 74
     0
 49
-0.5
 74
     0
  0
LTYPE
  5
3D
330
5
100
AcDbSymbolTableRecord
100
AcDbLinetypeTableRecord
  2
CENTER
 70
     0
  3
Center ____ _ ____ _ ____ _ ____ _ ____ _ ____
 72
    65
 73
     4
 40
2.0
 49
1.25
 74
     0
 49
-0.25
 74
     0
 49
0.25
 74
     0
 49
-0.25
 74
     0
  0
LTYPE
  5
3E
330
5
100
AcDbSymbolTableRecord
100
AcDbLinetypeTableRecord
  2
CENTER2
 70
     0
  3
Center (.5x) ___ _ ___ _ ___ _ ___ _ ___ _ ___
 72
    65
 73
     4
 40
1.125
 49
0.75
 74
     0
 49
-0.125
 74
     0
 49
0.125
 74
     0
 49
-0.125
 74
     0
  0
LTYPE
  5
3F
330
5
100
AcDbSymbolTableRecord
100
AcDbLinetypeTableRecord
  2
CENTERX2
 70
     0
  3
Center (2x) ________  __  ________  __  _____
 72
    65
 73
     4
 40
4.0
 49
2.5
 74
     0
 49
-0.5
 74
     0
 49
0.5
 74
     0
 49
-0.5
 74
     0
  0
LTYPE
  5
40
330
5
100
AcDbSymbolTableRecord
100
AcDbLinetypeTableRecord
  2
DASHDOT2
 70
     0
  3
Dash dot (.5x) _._._._._._._._._._._._._._._.
 72
    65
 73
     4
 40
0.5
 49
0.25
 74
     0
 49
-0.125
 74
     0
 49
0.0
 74
     0
 49
-0.125
 74
     0
  0
LTYPE
  5
41
330
5
100
AcDbSymbolTableRecord
100
AcDbLinetypeTableRecord
  2
DASHDOTX2
 70
     0
  3
Dash dot (2x) ____  .  ____  .  ____  .  ___
 72
    65
 73
     4
 40
2.0
 49
1.0
 74
     0
 49
-0.5
 74
     0
 49
0.0
 74
     0
 49
-0.5
 74
     0
  0
LTYPE
  5
43
330
5
100
AcDbSymbolTableRecord
100
AcDbLinetypeTableRecord
  2
DASHED2
 70
     0
  3
Dashed (.5x) _ _ _ _ _ _ _ _ _ _ _ _ _ _ _ _ _
 72
    65
 73
     2
 40
0.375
 49
0.25
 74
     0
 49
-0.125
 74
     0
  0
LTYPE
  5
44
330
5
100
AcDbSymbolTableRecord
100
AcDbLinetypeTableRecord
  2
DASHEDX2
 70
     0
  3
Dashed (2x) ____  ____  ____  ____  ____  ___
 72
    65
 73
     2
 40
1.5
 49
1.0
 74
     0
 49
-0.5
 74
     0
  0
LTYPE
  5
45
330
5
100
AcDbSymbolTableRecord
100
AcDbLinetypeTableRecord
  2
DIVIDE
 70
     0
  3
Divide ____ . . ____ . . ____ . . ____ . . ____
 72
    65
 73
     6
 40
1.25
 49
0.5
 74
     0
 49
-0.25
 74
     0
 49
0.0
 74
     0
 49
-0.25
 74
     0
 49
0.0
 74
     0
 49
-0.25
 74
     0
  0
LTYPE
  5
46
330
5
100
AcDbSymbolTableRecord
100
AcDbLinetypeTableRecord
  2
DIVIDE2
 70
     0
  3
Divide (.5x) __..__..__..__..__..__..__..__.._
 72
    65
 73
     6
 40
0.625
 49
0.25
 74
     0
 49
-0.125
 74
     0
 49
0.0
 74
     0
 49
-0.125
 74
     0
 49
0.0
 74
     0
 49
-0.125
 74
     0
  0
LTYPE
  5
47
330
5
100
AcDbSymbolTableRecord
100
AcDbLinetypeTableRecord
  2
DIVIDEX2
 70
     0
  3
Divide (2x) ________  .  .  ________  .  .  _
 72
    65
 73
     6
 40
2.5
 49
1.0
 74
     0
 49
-0.5
 74
     0
 49
0.0
 74
     0
 49
-0.5
 74
     0
 49
0.0
 74
     0
 49
-0.5
 74
     0
  0
LTYPE
  5
48
330
5
100
AcDbSymbolTableRecord
100
AcDbLinetypeTableRecord
  2
DOT
 70
     0
  3
Dot . . . . . . . . . . . . . . . . . . . . . .
 72
    65
 73
     2
 40
0.25
 49
0.0
 74
     0
 49
-0.25
 74
     0
  0
LTYPE
  5
49
330
5
100
AcDbSymbolTableRecord
100
AcDbLinetypeTableRecord
  2
DOT2
 70
     0
  3
Dot (.5x) .....................................
 72
    65
 73
     2
 40
0.125
 49
0.0
 74
     0
 49
-0.125
 74
     0
  0
LTYPE
  5
4A
330
5
100
AcDbSymbolTableRecord
100
AcDbLinetypeTableRecord
  2
DOTX2
 70
     0
  3
Dot (2x) .  .  .  .  .  .  .  .  .  .  .  .  . 
 72
    65
 73
     2
 40
0.5
 49
0.0
 74
     0
 49
-0.5
 74
     0
  0
LTYPE
  5
4B
330
5
100
AcDbSymbolTableRecord
100
AcDbLinetypeTableRecord
  2
HIDDEN
 70
     0
  3
Hidden __ __ __ __ __ __ __ __ __ __ __ __ __ _
 72
    65
 73
     2
 40
0.375
 49
0.25
 74
     0
 49
-0.125
 74
     0
  0
LTYPE
  5
4C
330
5
100
AcDbSymbolTableRecord
100
AcDbLinetypeTableRecord
  2
HIDDEN2
 70
     0
  3
Hidden (.5x) _ _ _ _ _ _ _ _ _ _ _ _ _ _ _ _ _
 72
    65
 73
     2
 40
0.1875
 49
0.125
 74
     0
 49
-0.0625
 74
     0
  0
LTYPE
  5
4D
330
5
100
AcDbSymbolTableRecord
100
AcDbLinetypeTableRecord
  2
HIDDENX2
 70
     0
  3
Hidden (2x) ____ ____ ____ ____ ____ ____ ____
 72
    65
 73
     2
 40
0.75
 49
0.5
 74
     0
 49
-0.25
 74
     0
  0
LTYPE
  5
4E
330
5
100
AcDbSymbolTableRecord
100
AcDbLinetypeTableRecord
  2
PHANTOM
 70
     0
  3
Phantom ______  __  __  ______  __  __  ______
 72
    65
 73
     6
 40
2.5
 49
1.25
 74
     0
 49
-0.25
 74
     0
 49
0.25
 74
     0
 49
-0.25
 74
     0
 49
0.25
 74
     0
 49
-0.25
 74
     0
  0
LTYPE
  5
4F
330
5
100
AcDbSymbolTableRecord
100
AcDbLinetypeTableRecord
  2
PHANTOM2
 70
     0
  3
Phantom (.5x) ___ _ _ ___ _ _ ___ _ _ ___ _ _
 72
    65
 73
     6
 40
1.25
 49
0.625
 74
     0
 49
-0.125
 74
     0
 49
0.125
 74
     0
 49
-0.125
 74
     0
 49
0.125
 74
     0
 49
-0.125
 74
     0
  0
LTYPE
  5
50
330
5
100
AcDbSymbolTableRecord
100
AcDbLinetypeTableRecord
  2
PHANTOMX2
 70
     0
  3
Phantom (2x) ____________    ____    ____   _
 72
    65
 73
     6
 40
5.0
 49
2.5
 74
     0
 49
-0.5
 74
     0
 49
0.5
 74
     0
 49
-0.5
 74
     0
 49
0.5
 74
     0
 49
-0.5
 74
     0
  0
LTYPE
  5
51
330
5
100
AcDbSymbolTableRecord
100
AcDbLinetypeTableRecord
  2
ACAD_ISO02W100
 70
     0
  3
ISO dash __ __ __ __ __ __ __ __ __ __ __ __ __
 72
    65
 73
     2
 40
0.59
 49
0.47
 74
     0
 49
-0.12
 74
     0
  0
LTYPE
  5
52
330
5
100
AcDbSymbolTableRecord
100
AcDbLinetypeTableRecord
  2
ACAD_ISO03W100
 70
     0
  3
ISO dash space __    __    __    __    __    __
 72
    65
 73
     2
 40
1.179999999999999
 49
0.47
 74
     0
 49
-0.71
 74
     0
  0
LTYPE
  5
53
330
5
100
AcDbSymbolTableRecord
100
AcDbLinetypeTableRecord
  2
ACAD_ISO04W100
 70
     0
  3
ISO long-dash dot ____ . ____ . ____ . ____ . _
 72
    65
 73
     4
 40
1.179999999999999
 49
0.9399999999999998
 74
     0
 49
-0.12
 74
     0
 49
0.0
 74
     0
 49
-0.12
 74
     0
  0
LTYPE
  5
54
330
5
100
AcDbSymbolTableRecord
100
AcDbLinetypeTableRecord
  2
ACAD_ISO05W100
 70
     0
  3
ISO long-dash double-dot ____ .. ____ .. ____ .
 72
    65
 73
     6
 40
1.299999999999999
 49
0.9399999999999998
 74
     0
 49
-0.12
 74
     0
 49
0.0
 74
     0
 49
-0.12
 74
     0
 49
0.0
 74
     0
 49
-0.12
 74
     0
  0
LTYPE
  5
55
330
5
100
AcDbSymbolTableRecord
100
AcDbLinetypeTableRecord
  2
ACAD_ISO06W100
 70
     0
  3
ISO long-dash triple-dot ____ ... ____ ... ____
 72
    65
 73
     8
 40
1.419999999999999
 49
0.9399999999999998
 74
     0
 49
-0.12
 74
     0
 49
0.0
 74
     0
 49
-0.12
 74
     0
 49
0.0
 74
     0
 49
-0.12
 74
     0
 49
0.0
 74
     0
 49
-0.12
 74
     0
  0
LTYPE
  5
56
330
5
100
AcDbSymbolTableRecord
100
AcDbLinetypeTableRecord
  2
ACAD_ISO07W100
 70
     0
  3
ISO dot . . . . . . . . . . . . . . . . . . . .
 72
    65
 73
     2
 40
0.12
 49
0.0
 74
     0
 49
-0.12
 74
     0
  0
LTYPE
  5
57
330
5
100
AcDbSymbolTableRecord
100
AcDbLinetypeTableRecord
  2
ACAD_ISO08W100
 70
     0
  3
ISO long-dash short-dash ____ __ ____ __ ____ _
 72
    65
 73
     4
 40
0.95
 49
0.47
 74
     0
 49
-0.12
 74
     0
 49
0.24
 74
     0
 49
-0.12
 74
     0
  0
LTYPE
  5
58
330
5
100
AcDbSymbolTableRecord
100
AcDbLinetypeTableRecord
  2
ACAD_ISO09W100
 70
     0
  3
ISO long-dash double-short-dash ____ __ __ ____
 72
    65
 73
     6
 40
1.31
 49
0.47
 74
     0
 49
-0.12
 74
     0
 49
0.24
 74
     0
 49
-0.12
 74
     0
 49
0.24
 74
     0
 49
-0.12
 74
     0
  0
LTYPE
  5
59
330
5
100
AcDbSymbolTableRecord
100
AcDbLinetypeTableRecord
  2
ACAD_ISO10W100
 70
     0
  3
ISO dash dot __ . __ . __ . __ . __ . __ . __ .
 72
    65
 73
     4
 40
0.71
 49
0.47
 74
     0
 49
-0.12
 74
     0
 49
0.0
 74
     0
 49
-0.12
 74
     0
  0
LTYPE
  5
5A
330
5
100
AcDbSymbolTableRecord
100
AcDbLinetypeTableRecord
  2
ACAD_ISO11W100
 70
     0
  3
ISO double-dash dot __ __ . __ __ . __ __ . __ 
 72
    65
 73
     6
 40
1.299999999999999
 49
0.47
 74
     0
 49
-0.12
 74
     0
 49
0.47
 74
     0
 49
-0.12
 74
     0
 49
0.0
 74
     0
 49
-0.12
 74
     0
  0
LTYPE
  5
5B
330
5
100
AcDbSymbolTableRecord
100
AcDbLinetypeTableRecord
  2
ACAD_ISO12W100
 70
     0
  3
ISO dash double-dot __ . . __ . . __ . . __ . .
 72
    65
 73
     6
 40
0.8299999999999998
 49
0.47
 74
     0
 49
-0.12
 74
     0
 49
0.0
 74
     0
 49
-0.12
 74
     0
 49
0.0
 74
     0
 49
-0.12
 74
     0
  0
LTYPE
  5
5C
330
5
100
AcDbSymbolTableRecord
100
AcDbLinetypeTableRecord
  2
ACAD_ISO13W100
 70
     0
  3
ISO double-dash double-dot __ __ . . __ __ . . 
 72
    65
 73
     8
 40
1.419999999999999
 49
0.47
 74
     0
 49
-0.12
 74
     0
 49
0.47
 74
     0
 49
-0.12
 74
     0
 49
0.0
 74
     0
 49
-0.12
 74
     0
 49
0.0
 74
     0
 49
-0.12
 74
     0
  0
LTYPE
  5
5D
330
5
100
AcDbSymbolTableRecord
100
AcDbLinetypeTableRecord
  2
ACAD_ISO14W100
 70
     0
  3
ISO dash triple-dot __ . . . __ . . . __ . . . 
 72
    65
 73
     8
 40
0.95
 49
0.47
 74
     0
 49
-0.12
 74
     0
 49
0.0
 74
     0
 49
-0.12
 74
     0
 49
0.0
 74
     0
 49
-0.12
 74
     0
 49
0.0
 74
     0
 49
-0.12
 74
     0
  0
LTYPE
  5
5E
330
5
100
AcDbSymbolTableRecord
100
AcDbLinetypeTableRecord
  2
ACAD_ISO15W100
 70
     0
  3
ISO double-dash triple-dot __ __ . . . __ __ . 
 72
    65
 73
    10
 40
1.539999999999999
 49
0.47
 74
     0
 49
-0.12
 74
     0
 49
0.47
 74
     0
 49
-0.12
 74
     0
 49
0.0
 74
     0
 49
-0.12
 74
     0
 49
0.0
 74
     0
 49
-0.12
 74
     0
 49
0.0
 74
     0
 49
-0.12
 74
     0
  0
LTYPE
  5
61
330
5
100
AcDbSymbolTableRecord
100
AcDbLinetypeTableRecord
  2
FENCELINE1
 70
     0
  3
Fenceline circle ----0-----0----0-----0----0---
 72
    65
 73
     4
 40
1.45
 49
0.25
 74
     0
 49
-0.1
 74
     4
 75
   133
340
60
 46
0.1
 50
0.0
 44
-0.1
 45
0.0
 49
-0.1
 74
     0
 49
1.0
 74
     0
  0
LTYPE
  5
62
330
5
100
AcDbSymbolTableRecord
100
AcDbLinetypeTableRecord
  2
FENCELINE2
 70
     0
  3
Fenceline square ----[]-----[]----[]-----[]----
 72
    65
 73
     4
 40
1.45
 49
0.25
 74
     0
 49
-0.1
 74
     4
 75
   132
340
60
 46
0.1
 50
0.0
 44
-0.1
 45
0.0
 49
-0.1
 74
     0
 49
1.0
 74
     0
  0
LTYPE
  5
63
330
5
100
AcDbSymbolTableRecord
100
AcDbLinetypeTableRecord
  2
TRACKS
 70
     0
  3
Tracks -|-|-|-|-|-|-|-|-|-|-|-|-|-|-|-|-|-|-|-|
 72
    65
 73
     2
 40
0.3
 49
0.15
 74
     4
 75
   130
340
60
 46
0.25
 50
0.0
 44
0.0
 45
0.0
 49
0.15
 74
     0
  0
LTYPE
  5
64
330
5
100
AcDbSymbolTableRecord
100
AcDbLinetypeTableRecord
  2
BATTING
 70
     0
  3
Batting SSSSSSSSSSSSSSSSSSSSSSSSSSSSSSSSSSSSSSS
 72
    65
 73
     4
 40
0.4001000000000001
 49
0.0001
 74
     0
 49
-0.1
 74
     4
 75
   134
340
60
 46
0.1
 50
0.0
 44
-0.1
 45
0.0
 49
-0.2
 74
     4
 75
   134
340
60
 46
0.1
 50
180.0
 44
0.1
 45
0.0
 49
-0.1
 74
     0
  0
LTYPE
  5
65
330
5
100
AcDbSymbolTableRecord
100
AcDbLinetypeTableRecord
  2
HOT_WATER_SUPPLY
 70
     0
  3
Hot water supply ---- HW ---- HW ---- HW ----
 72
    65
 73
     3
 40
0.9
 49
0.5
 74
     0
 49
-0.2
 74
     2
 75
     0
340
11
 46
0.1
 50
0.0
 44
-0.1
 45
-0.05
  9
HW
 49
-0.2
 74
     0
  0
LTYPE
  5
66
330
5
100
AcDbSymbolTableRecord
100
AcDbLinetypeTableRecord
  2
GAS_LINE
 70
     0
  3
Gas line ----GAS----GAS----GAS----GAS----GAS---
 72
    65
 73
     3
 40
0.95
 49
0.5
 74
     0
 49
-0.2
 74
     2
 75
     0
340
11
 46
0.1
 50
0.0
 44
-0.1
 45
-0.05
  9
GAS
 49
-0.25
 74
     0
  0
LTYPE
  5
67
330
5
100
AcDbSymbolTableRecord
100
AcDbLinetypeTableRecord
  2
ZIGZAG
 70
     0
  3
Zig zag /\/\/\/\/\/\/\/\/\/\/\/\/\/\/\/\/\/\/\/
 72
    65
 73
     4
 40
0.8001000000000001
 49
0.0001
 74
     0
 49
-0.2
 74
     4
 75
   131
340
60
 46
0.2
 50
0.0
 44
-0.2
 45
0.0
 49
-0.4
 74
     4
 75
   131
340
60
 46
0.2
 50
180.0
 44
0.2
 45
0.0
 49
-0.2
 74
     0
  0
ENDTAB
  0
TABLE
  2
LAYER
  5
2
330
0
100
AcDbSymbolTable
 70
     4
  0
LAYER
  5
10
330
2
100
AcDbSymbolTableRecord
100
AcDbLayerTableRecord
  2
0
 70
     0
 62
     7
  6
Continuous
370
    -3
390
F
  0
LAYER
  5
94
330
2
100
AcDbSymbolTableRecord
100
AcDbLayerTableRecord
  2
2dTransBorder
 70
     0
 62
     7
  6
Continuous
370
    50
390
F
  0
LAYER
  5
ED
330
2
100
AcDbSymbolTableRecord
100
AcDbLayerTableRecord
  2
2dTransTitleBlock
 70
     0
 62
     7
  6
Continuous
370
    50
390
F
  0
LAYER
  5
137
330
2
100
AcDbSymbolTableRecord
100
AcDbLayerTableRecord
  2
Defpoints
 70
     0
 62
     7
  6
Continuous
290
     0
370
    -3
390
F
  0
ENDTAB
  0
TABLE
  2
STYLE
  5
3
330
0
100
AcDbSymbolTable
 70
    27
  0
STYLE
  5
11
330
3
100
AcDbSymbolTableRecord
100
AcDbTextStyleTableRecord
  2
Standard
 70
     0
 40
0.0
 41
1.0
 50
0.0
 71
     0
 42
0.2
  3
ARIAL.TTF
  4

1001
ACAD
1000
Arial
1071
      256
  0
STYLE
  5
60
330
3
100
AcDbSymbolTableRecord
100
AcDbTextStyleTableRecord
  2

 70
     1
 40
0.0
 41
1.0
 50
0.0
 71
     0
 42
0.2
  3
ltypeshp.shx
  4

  0
STYLE
  5
68
330
3
100
AcDbSymbolTableRecord
100
AcDbTextStyleTableRecord
  2
Text Style1
 70
     0
 40
0.0
 41
1.0
 50
0.0
 71
     0
 42
0.2
  3
ARIAL.TTF
  4

1001
ACAD
1000
Arial
1071
      256
  0
STYLE
  5
69
330
3
100
AcDbSymbolTableRecord
100
AcDbTextStyleTableRecord
  2
Text Style2
 70
     0
 40
0.0
 41
1.0
 50
0.0
 71
     0
 42
0.2
  3
Aigdt___.ttf
  4

1001
ACAD
1000
AIGDT
1071
      514
  0
STYLE
  5
6A
330
3
100
AcDbSymbolTableRecord
100
AcDbTextStyleTableRecord
  2
Text Style3
 70
     0
 40
0.0
 41
1.0
 50
0.0
 71
     0
 42
0.2
  3
TIMES.TTF
  4

1001
ACAD
1000
Times New Roman
1071
      256
  0
STYLE
  5
6B
330
3
100
AcDbSymbolTableRecord
100
AcDbTextStyleTableRecord
  2
Text Style4
 70
     0
 40
0.0
 41
1.0
 50
0.0
 71
     0
 42
0.2
  3
TIMES.TTF
  4

1001
ACAD
1000
Times New Roman
1071
      256
  0
STYLE
  5
6C
330
3
100
AcDbSymbolTableRecord
100
AcDbTextStyleTableRecord
  2
Text Style5
 70
     0
 40
0.0
 41
1.0
 50
0.0
 71
     0
 42
0.2
  3
ARIAL.TTF
  4

1001
ACAD
1000
Arial
1071
      256
  0
STYLE
  5
6D
330
3
100
AcDbSymbolTableRecord
100
AcDbTextStyleTableRecord
  2
Text Style6
 70
     0
 40
0.0
 41
1.0
 50
0.0
 71
     0
 42
0.2
  3
ARIAL.TTF
  4

1001
ACAD
1000
Arial
1071
      256
  0
STYLE
  5
6E
330
3
100
AcDbSymbolTableRecord
100
AcDbTextStyleTableRecord
  2
Text Style7
 70
     0
 40
0.0
 41
1.0
 50
0.0
 71
     0
 42
0.2
  3
ARIAL.TTF
  4

1001
ACAD
1000
Arial
1071
      256
  0
STYLE
  5
6F
330
3
100
AcDbSymbolTableRecord
100
AcDbTextStyleTableRecord
  2
Text Style8
 70
     0
 40
0.0
 41
1.0
 50
0.0
 71
     0
 42
0.2
  3
ARIAL.TTF
  4

1001
ACAD
1000
Arial
1071
      256
  0
STYLE
  5
70
330
3
100
AcDbSymbolTableRecord
100
AcDbTextStyleTableRecord
  2
Text Style9
 70
     0
 40
0.0
 41
1.0
 50
0.0
 71
     0
 42
0.2
  3
ARIAL.TTF
  4

1001
ACAD
1000
Arial
1071
      256
  0
STYLE
  5
71
330
3
100
AcDbSymbolTableRecord
100
AcDbTextStyleTableRecord
  2
Text Style10
 70
     0
 40
0.0
 41
1.0
 50
0.0
 71
     0
 42
0.2
  3
Aigdt___.ttf
  4

1001
ACAD
1000
AIGDT
1071
      514
  0
STYLE
  5
72
330
3
100
AcDbSymbolTableRecord
100
AcDbTextStyleTableRecord
  2
Text Style11
 70
     0
 40
0.0
 41
1.0
 50
0.0
 71
     0
 42
0.2
  3
ARIAL.TTF
  4

1001
ACAD
1000
Arial
1071
      256
  0
STYLE
  5
73
330
3
100
AcDbSymbolTableRecord
100
AcDbTextStyleTableRecord
  2
Text Style12
 70
     0
 40
0.0
 41
1.0
 50
0.0
 71
     0
 42
0.2
  3
ARIAL.TTF
  4

1001
ACAD
1000
Arial
1071
      256
  0
STYLE
  5
74
330
3
100
AcDbSymbolTableRecord
100
AcDbTextStyleTableRecord
  2
Text Style13
 70
     0
 40
0.0
 41
1.0
 50
0.0
 71
     0
 42
0.2
  3
Aigdt___.ttf
  4

1001
ACAD
1000
AIGDT
1071
      514
  0
STYLE
  5
75
330
3
100
AcDbSymbolTableRecord
100
AcDbTextStyleTableRecord
  2
Text Style14
 70
     0
 40
0.0
 41
1.0
 50
0.0
 71
     0
 42
0.2
  3
ARIAL.TTF
  4

1001
ACAD
1000
Arial
1071
      256
  0
STYLE
  5
76
330
3
100
AcDbSymbolTableRecord
100
AcDbTextStyleTableRecord
  2
Text Style15
 70
     0
 40
0.0
 41
1.0
 50
0.0
 71
     0
 42
0.2
  3
Aigdt___.ttf
  4

1001
ACAD
1000
AIGDT
1071
      514
  0
STYLE
  5
77
330
3
100
AcDbSymbolTableRecord
100
AcDbTextStyleTableRecord
  2
Text Style16
 70
     0
 40
0.0
 41
1.0
 50
0.0
 71
     0
 42
0.2
  3
ARIAL.TTF
  4

1001
ACAD
1000
Arial
1071
      256
  0
STYLE
  5
78
330
3
100
AcDbSymbolTableRecord
100
AcDbTextStyleTableRecord
  2
Text Style17
 70
     0
 40
0.0
 41
1.0
 50
0.0
 71
     0
 42
0.2
  3
ARIAL.TTF
  4

1001
ACAD
1000
Arial
1071
      256
  0
STYLE
  5
79
330
3
100
AcDbSymbolTableRecord
100
AcDbTextStyleTableRecord
  2
Text Style18
 70
     0
 40
0.0
 41
1.0
 50
0.0
 71
     0
 42
0.2
  3
Aigdt___.ttf
  4

1001
ACAD
1000
AIGDT
1071
      514
  0
STYLE
  5
7A
330
3
100
AcDbSymbolTableRecord
100
AcDbTextStyleTableRecord
  2
Text Style19
 70
     0
 40
0.0
 41
1.0
 50
0.0
 71
     0
 42
0.2
  3
ARIAL.TTF
  4

1001
ACAD
1000
Arial
1071
      256
  0
STYLE
  5
7B
330
3
100
AcDbSymbolTableRecord
100
AcDbTextStyleTableRecord
  2
Text Style20
 70
     0
 40
0.0
 41
1.0
 50
0.0
 71
     0
 42
0.2
  3
ARIAL.TTF
  4

1001
ACAD
1000
Arial
1071
      256
  0
STYLE
  5
7C
330
3
100
AcDbSymbolTableRecord
100
AcDbTextStyleTableRecord
  2
Text Style21
 70
     0
 40
0.0
 41
1.0
 50
0.0
 71
     0
 42
0.2
  3
Aigdt___.ttf
  4

1001
ACAD
1000
AIGDT
1071
      514
  0
STYLE
  5
7D
330
3
100
AcDbSymbolTableRecord
100
AcDbTextStyleTableRecord
  2
Text Style22
 70
     0
 40
0.0
 41
1.0
 50
0.0
 71
     0
 42
0.2
  3
ARIAL.TTF
  4

1001
ACAD
1000
Arial
1071
      256
  0
STYLE
  5
7E
330
3
100
AcDbSymbolTableRecord
100
AcDbTextStyleTableRecord
  2
Text Style23
 70
     0
 40
0.0
 41
1.0
 50
0.0
 71
     0
 42
0.2
  3
ARIAL.TTF
  4

1001
ACAD
1000
Arial
1071
      256
  0
STYLE
  5
7F
330
3
100
AcDbSymbolTableRecord
100
AcDbTextStyleTableRecord
  2
Current-ANSI
 70
     0
 40
0.0
 41
1.0
 50
0.0
 71
     0
 42
0.2
  3
ARIAL.TTF
  4

1001
ACAD
1000
Arial
1071
      256
  0
STYLE
  5
80
330
3
100
AcDbSymbolTableRecord
100
AcDbTextStyleTableRecord
  2
DEFAULT-ANSI
 70
     0
 40
0.0
 41
1.0
 50
0.0
 71
     0
 42
0.2
  3
ARIAL.TTF
  4

1001
ACAD
1000
Arial
1071
      256
  0
ENDTAB
  0
TABLE
  2
VIEW
  5
6
330
0
100
AcDbSymbolTable
 70
     0
  0
ENDTAB
  0
TABLE
  2
UCS
  5
7
330
0
100
AcDbSymbolTable
 70
     0
  0
ENDTAB
  0
TABLE
  2
APPID
  5
9
330
0
100
AcDbSymbolTable
 70
     1
  0
APPID
  5
12
330
9
100
AcDbSymbolTableRecord
100
AcDbRegAppTableRecord
  2
ACAD
 70
     0
  0
ENDTAB
  0
TABLE
  2
DIMSTYLE
  5
A
330
0
100
AcDbSymbolTable
 70
    13
100
AcDbDimStyleTable
 71
     3
340
90
340
29
340
8F
  0
DIMSTYLE
105
29
330
A
100
AcDbSymbolTableRecord
100
AcDbDimStyleTableRecord
  2
Standard
 70
     0
340
11
  0
DIMSTYLE
105
81
330
A
100
AcDbSymbolTableRecord
100
AcDbDimStyleTableRecord
  2
1 32 - FRACTION
 70
     0
 40
0.5
 41
2.5
 42
1.587499999999999
 43
5.999999999999999
 44
3.174999999999999
 45
0.00000001
 46
10.0
 73
     0
 74
     0
 78
    12
 79
     3
140
3.04800009727478
144
0.0393700787401575
147
0.8
171
     1
176
   250
177
   250
178
    18
271
     5
272
     2
277
     5
284
    12
340
11
344
82
371
    25
372
    25
  0
DIMSTYLE
105
89
330
A
100
AcDbSymbolTableRecord
100
AcDbDimStyleTableRecord
  2
1 64 - FRACTION
 70
     0
 40
0.5
 41
2.5
 42
1.587499999999999
 43
5.999999999999999
 44
3.174999999999999
 45
0.00000001
 46
10.0
 73
     0
 74
     0
 78
    12
 79
     3
140
3.04800009727478
144
0.0393700787401575
147
0.8
171
     1
176
   250
177
   250
178
    18
271
     6
272
     2
277
     5
284
    12
340
11
344
82
371
    25
372
    25
  0
DIMSTYLE
105
8A
330
A
100
AcDbSymbolTableRecord
100
AcDbDimStyleTableRecord
  2
ANSI - ALIGNED
 70
     0
 40
0.5
 41
2.5
 42
1.587499999999999
 43
5.999999999999999
 44
3.174999999999999
 45
0.00000001
 46
10.0
 73
     0
 78
     4
 79
     1
140
3.04800009727478
144
0.0393700787401575
147
0.8
171
     1
176
   250
177
   250
178
    18
271
     2
272
     2
284
     4
340
11
344
82
371
    25
372
    25
  0
DIMSTYLE
105
8B
330
A
100
AcDbSymbolTableRecord
100
AcDbDimStyleTableRecord
  2
ANSI FRACTION - ALIGNED
 70
     0
 40
0.5
 41
2.5
 42
1.587499999999999
 43
5.999999999999999
 44
3.174999999999999
 45
0.00000001
 46
10.0
 73
     0
 78
    12
 79
     3
140
3.04800009727478
144
0.0393700787401575
147
0.8
171
     1
176
   250
177
   250
178
    18
272
     2
277
     5
284
    12
340
11
344
82
371
    25
372
    25
  0
DIMSTYLE
105
8C
330
A
100
AcDbSymbolTableRecord
100
AcDbDimStyleTableRecord
  2
DEFAULT-ANSI
 70
     0
 40
0.5
 41
2.5
 42
1.587499999999999
 43
5.999999999999999
 44
3.174999999999999
 45
0.00000001
 46
10.0
140
3.04800009727478
144
0.0393700787401575
147
0.8
171
     1
176
   250
177
   250
178
    18
271
     2
272
     2
340
11
344
82
371
    25
372
    25
  0
DIMSTYLE
105
8D
330
A
100
AcDbSymbolTableRecord
100
AcDbDimStyleTableRecord
  2
DEFAULT-ANSI FRACTION
 70
     0
 40
0.5
 41
2.5
 42
1.587499999999999
 43
5.999999999999999
 44
3.174999999999999
 45
0.00000001
 46
10.0
 78
    12
 79
     3
140
3.04800009727478
144
0.0393700787401575
147
0.8
171
     1
176
   250
177
   250
178
    18
272
     2
277
     5
284
    12
340
11
344
82
371
    25
372
    25
  0
DIMSTYLE
105
8E
330
A
100
AcDbSymbolTableRecord
100
AcDbDimStyleTableRecord
  2
MM-ANSI
 70
     0
 40
0.5
 41
2.5
 42
1.587499999999999
 43
5.999999999999999
 44
3.174999999999999
 45
0.00000001
 46
10.0
 73
     0
 78
     8
 79
     2
140
3.04800009727478
143
1.0
147
1.600199999999999
171
     1
176
   250
177
   250
178
    18
179
     1
271
     2
272
     2
284
     8
340
11
344
82
371
    25
372
    25
  0
DIMSTYLE
105
8F
102
{ACAD_REACTORS
330
136
102
}
330
A
100
AcDbSymbolTableRecord
100
AcDbDimStyleTableRecord
  2
MM-ANSI-01
 70
     0
 40
0.5
 41
2.5
 42
1.587499999999999
 43
5.999999999999999
 44
3.174999999999999
 45
0.00000001
 46
10.0
 78
     8
 79
     2
140
5.0
143
1.0
146
0.6096000194549561
147
1.600199999999999
171
     1
176
   250
177
   250
178
    18
179
     1
271
     2
272
     2
284
     8
340
11
344
82
371
    25
372
    25
  0
DIMSTYLE
105
90
102
{ACAD_REACTORS
330
1AE
330
24E
330
2EA
330
384
102
}
330
A
100
AcDbSymbolTableRecord
100
AcDbDimStyleTableRecord
  2
MM-ANSI-02
 70
     0
 40
0.5
 41
2.5
 42
1.587499999999999
 43
5.999999999999999
 44
3.174999999999999
 45
0.00000001
 46
10.0
 78
     8
 79
     2
140
5.0
143
1.0
146
0.6096000194549561
147
1.600199999999999
171
     1
176
   250
177
   250
178
    18
179
     1
271
     2
272
     2
284
     8
340
11
344
82
371
    25
372
    25
  0
DIMSTYLE
105
91
330
A
100
AcDbSymbolTableRecord
100
AcDbDimStyleTableRecord
  2
X . XX mm [in]
 70
     0
  4
 in
 40
0.5
 41
2.5
 42
2.387599999999999
 43
6.349999999999999
 44
3.174999999999999
 45
0.00000001
 46
10.0
 73
     0
 74
     0
 78
     8
 79
     2
140
3.04800009727478
143
0.03937
147
1.600199999999999
170
     1
171
     3
176
   250
177
   250
178
    18
179
     1
271
     2
272
     2
284
     8
340
11
344
82
371
    25
372
    25
  0
DIMSTYLE
105
92
330
A
100
AcDbSymbolTableRecord
100
AcDbDimStyleTableRecord
  2
X . XXX
 70
     0
 40
0.5
 41
2.5
 42
2.387599999999999
 43
6.349999999999999
 44
3.174999999999999
 45
0.00000001
 46
10.0
 73
     0
 74
     0
 78
     4
 79
     1
140
3.04800009727478
144
0.0393700787401575
147
1.600199999999999
171
     1
176
   250
177
   250
178
    18
179
     1
271
     3
272
     2
284
     4
340
11
344
82
371
    25
372
    25
  0
DIMSTYLE
105
93
330
A
100
AcDbSymbolTableRecord
100
AcDbDimStyleTableRecord
  2
X . XXX in [mm]
 70
     0
  4
 mm
 40
0.5
 41
2.5
 42
2.387599999999999
 43
6.349999999999999
 44
3.174999999999999
 45
0.00000001
 46
10.0
 73
     0
 74
     0
 78
     4
 79
     1
140
3.04800009727478
144
0.0393700787401575
147
1.600199999999999
170
     1
176
   250
177
   250
178
    18
179
     1
271
     3
272
     2
284
     4
340
11
344
82
371
    25
372
    25
  0
ENDTAB
  0
TABLE
  2
BLOCK_RECORD
  5
1
330
0
100
AcDbSymbolTable
 70
    14
  0
BLOCK_RECORD
  5
21
330
1
100
AcDbSymbolTableRecord
100
AcDbBlockTableRecord
  2
*Model_Space
340
24
  0
BLOCK_RECORD
  5
1D
330
1
100
AcDbSymbolTableRecord
100
AcDbBlockTableRecord
  2
*Paper_Space
340
20
  0
BLOCK_RECORD
  5
25
330
1
100
AcDbSymbolTableRecord
100
AcDbBlockTableRecord
  2
*Paper_Space0
340
28
  0
BLOCK_RECORD
  5
82
330
1
100
AcDbSymbolTableRecord
100
AcDbBlockTableRecord
  2
_Closed
340
0
  0
BLOCK_RECORD
  5
95
330
1
100
AcDbSymbolTableRecord
100
AcDbBlockTableRecord
  2
Borders Default Border
340
0
102
{BLKREFS
331
EC
102
}
  0
BLOCK_RECORD
  5
EE
330
1
100
AcDbSymbolTableRecord
100
AcDbBlockTableRecord
  2
Title Blocks ANSI - Large
340
0
102
{BLKREFS
331
120
102
}
  0
BLOCK_RECORD
  5
138
330
1
100
AcDbSymbolTableRecord
100
AcDbBlockTableRecord
  2
*D4
340
0
  0
BLOCK_RECORD
  5
1AF
330
1
100
AcDbSymbolTableRecord
100
AcDbBlockTableRecord
  2
*D5
340
0
  0
BLOCK_RECORD
  5
24F
330
1
100
AcDbSymbolTableRecord
100
AcDbBlockTableRecord
  2
*D6
340
0
  0
BLOCK_RECORD
  5
2EB
330
1
100
AcDbSymbolTableRecord
100
AcDbBlockTableRecord
  2
*D7
340
0
  0
BLOCK_RECORD
  5
385
330
1
100
AcDbSymbolTableRecord
100
AcDbBlockTableRecord
  2
*D8
340
0
  0
BLOCK_RECORD
  5
41E
330
1
100
AcDbSymbolTableRecord
100
AcDbBlockTableRecord
  2
*D9
340
0
  0
BLOCK_RECORD
  5
429
330
1
100
AcDbSymbolTableRecord
100
AcDbBlockTableRecord
  2
*D10
340
0
  0
BLOCK_RECORD
  5
436
330
1
100
AcDbSymbolTableRecord
100
AcDbBlockTableRecord
  2
*D11
340
0
  0
BLOCK_RECORD
  5
443
330
1
100
AcDbSymbolTableRecord
100
AcDbBlockTableRecord
  2
*D12
340
0
  0
BLOCK_RECORD
  5
450
330
1
100
AcDbSymbolTableRecord
100
AcDbBlockTableRecord
  2
*D13
340
0
  0
ENDTAB
  0
ENDSEC
  0
SECTION
  2
BLOCKS
  0
BLOCK
  5
22
330
21
100
AcDbEntity
  8
0
100
AcDbBlockBegin
  2
*Model_Space
 70
     0
 10
0.0
 20
0.0
 30
0.0
  3
*Model_Space
  1

  0
ENDBLK
  5
23
330
21
100
AcDbEntity
  8
0
100
AcDbBlockEnd
  0
BLOCK
  5
1E
330
1D
100
AcDbEntity
 67
     1
  8
0
100
AcDbBlockBegin
  2
*Paper_Space
 70
     0
 10
0.0
 20
0.0
 30
0.0
  3
*Paper_Space
  1

  0
ENDBLK
  5
1F
330
1D
100
AcDbEntity
 67
     1
  8
0
100
AcDbBlockEnd
  0
BLOCK
  5
26
330
25
100
AcDbEntity
  8
0
100
AcDbBlockBegin
  2
*Paper_Space0
 70
     0
 10
0.0
 20
0.0
 30
0.0
  3
*Paper_Space0
  1

  0
ENDBLK
  5
27
330
25
100
AcDbEntity
  8
0
100
AcDbBlockEnd
  0
BLOCK
  5
87
330
82
100
AcDbEntity
  8
0
100
AcDbBlockBegin
  2
_Closed
 70
     0
 10
0.0
 20
0.0
 30
0.0
  3
_Closed
  1

  0
LINE
  5
83
330
82
100
AcDbEntity
  8
0
  6
ByBlock
 62
     0
370
    -2
100
AcDbLine
 10
-10.0
 20
1.666666666666666
 30
0.0
 11
0.0
 21
0.0
 31
0.0
  0
LINE
  5
84
330
82
100
AcDbEntity
  8
0
  6
ByBlock
 62
     0
370
    -2
100
AcDbLine
 10
0.0
 20
0.0
 30
0.0
 11
-10.0
 21
-1.666666666666666
 31
0.0
  0
LINE
  5
85
330
82
100
AcDbEntity
  8
0
  6
ByBlock
 62
     0
370
    -2
100
AcDbLine
 10
-10.0
 20
1.666666666666666
 30
0.0
 11
-10.0
 21
-1.666666666666666
 31
0.0
  0
LINE
  5
86
330
82
100
AcDbEntity
  8
0
  6
ByBlock
 62
     0
370
    -2
100
AcDbLine
 10
0.0
 20
0.0
 30
0.0
 11
-10.0
 21
0.0
 31
0.0
  0
ENDBLK
  5
88
330
82
100
AcDbEntity
  8
0
100
AcDbBlockEnd
  0
BLOCK
  5
96
330
95
100
AcDbEntity
  8
0
100
AcDbBlockBegin
  2
Borders Default Border
 70
     0
 10
0.0
 20
0.0
 30
0.0
  3
Borders Default Border
  1

  0
POLYLINE
  5
98
330
95
100
AcDbEntity
  8
2dTransBorder
  6
Continuous
370
    50
100
AcDb2dPolyline
 66
     1
 10
0.0
 20
0.0
 30
0.0
  0
VERTEX
  5
99
330
98
100
AcDbEntity
  8
2dTransBorder
  6
Continuous
370
    50
100
AcDbVertex
100
AcDb2dVertex
 10
19.0499997138977
 20
12.69999980926513
 30
0.0
  0
VERTEX
  5
9A
330
98
100
AcDbEntity
  8
2dTransBorder
  6
Continuous
370
    50
100
AcDbVertex
100
AcDb2dVertex
 10
19.0499997138977
 20
419.099998474121
 30
0.0
  0
VERTEX
  5
9C
330
98
100
AcDbEntity
  8
2dTransBorder
  6
Continuous
370
    50
100
AcDbVertex
100
AcDb2dVertex
 10
539.7499847412109
 20
419.099998474121
 30
0.0
  0
VERTEX
  5
9D
330
98
100
AcDbEntity
  8
2dTransBorder
  6
Continuous
370
    50
100
AcDbVertex
100
AcDb2dVertex
 10
539.7499847412109
 20
12.69999980926513
 30
0.0
  0
VERTEX
  5
9E
330
98
100
AcDbEntity
  8
2dTransBorder
  6
Continuous
370
    50
100
AcDbVertex
100
AcDb2dVertex
 10
19.0499997138977
 20
12.69999980926513
 30
0.0
  0
SEQEND
  5
9B
330
98
100
AcDbEntity
  8
2dTransBorder
  6
Continuous
370
    50
  0
POLYLINE
  5
9F
330
95
100
AcDbEntity
  8
2dTransBorder
  6
Continuous
370
    50
100
AcDb2dPolyline
 66
     1
 10
0.0
 20
0.0
 30
0.0
  0
VERTEX
  5
A0
330
9F
100
AcDbEntity
  8
2dTransBorder
  6
Continuous
370
    50
100
AcDbVertex
100
AcDb2dVertex
 10
279.4000053405762
 20
6.349999904632568
 30
0.0
  0
VERTEX
  5
A1
330
9F
100
AcDbEntity
  8
2dTransBorder
  6
Continuous
370
    50
100
AcDbVertex
100
AcDb2dVertex
 10
279.4000053405762
 20
12.69999980926513
 30
0.0
  0
VERTEX
  5
A3
330
9F
100
AcDbEntity
  8
2dTransBorder
  6
Continuous
370
    50
100
AcDbVertex
100
AcDb2dVertex
 10
277.2002983093262
 20
8.889999985694885
 30
0.0
  0
VERTEX
  5
A4
330
9F
100
AcDbEntity
  8
2dTransBorder
  6
Continuous
370
    50
100
AcDbVertex
100
AcDb2dVertex
 10
281.5997123718262
 20
8.889999985694885
 30
0.0
  0
VERTEX
  5
A5
330
9F
100
AcDbEntity
  8
2dTransBorder
  6
Continuous
370
    50
100
AcDbVertex
100
AcDb2dVertex
 10
279.4000053405762
 20
12.69999980926513
 30
0.0
  0
SEQEND
  5
A2
330
9F
100
AcDbEntity
  8
2dTransBorder
  6
Continuous
370
    50
  0
POLYLINE
  5
A6
330
95
100
AcDbEntity
  8
2dTransBorder
  6
Continuous
370
    50
100
AcDb2dPolyline
 66
     1
 10
0.0
 20
0.0
 30
0.0
  0
VERTEX
  5
A7
330
A6
100
AcDbEntity
  8
2dTransBorder
  6
Continuous
370
    50
100
AcDbVertex
100
AcDb2dVertex
 10
279.4000053405762
 20
425.4499816894531
 30
0.0
  0
VERTEX
  5
A8
330
A6
100
AcDbEntity
  8
2dTransBorder
  6
Continuous
370
    50
100
AcDbVertex
100
AcDb2dVertex
 10
279.4000053405762
 20
419.099998474121
 30
0.0
  0
VERTEX
  5
AA
330
A6
100
AcDbEntity
  8
2dTransBorder
  6
Continuous
370
    50
100
AcDbVertex
100
AcDb2dVertex
 10
277.2002983093262
 20
422.9100036621093
 30
0.0
  0
VERTEX
  5
AB
330
A6
100
AcDbEntity
  8
2dTransBorder
  6
Continuous
370
    50
100
AcDbVertex
100
AcDb2dVertex
 10
281.5997123718262
 20
422.9100036621093
 30
0.0
  0
VERTEX
  5
AC
330
A6
100
AcDbEntity
  8
2dTransBorder
  6
Continuous
370
    50
100
AcDbVertex
100
AcDb2dVertex
 10
279.4000053405762
 20
419.099998474121
 30
0.0
  0
SEQEND
  5
A9
330
A6
100
AcDbEntity
  8
2dTransBorder
  6
Continuous
370
    50
  0
POLYLINE
  5
AD
330
95
100
AcDbEntity
  8
2dTransBorder
  6
Continuous
370
    50
100
AcDb2dPolyline
 66
     1
 10
0.0
 20
0.0
 30
0.0
  0
VERTEX
  5
AE
330
AD
100
AcDbEntity
  8
2dTransBorder
  6
Continuous
370
    50
100
AcDbVertex
100
AcDb2dVertex
 10
12.69999980926513
 20
215.9000015258789
 30
0.0
  0
VERTEX
  5
AF
330
AD
100
AcDbEntity
  8
2dTransBorder
  6
Continuous
370
    50
100
AcDbVertex
100
AcDb2dVertex
 10
19.0499997138977
 20
215.9000015258789
 30
0.0
  0
VERTEX
  5
B1
330
AD
100
AcDbEntity
  8
2dTransBorder
  6
Continuous
370
    50
100
AcDbVertex
100
AcDb2dVertex
 10
15.2400004863739
 20
218.0997085571289
 30
0.0
  0
VERTEX
  5
B2
330
AD
100
AcDbEntity
  8
2dTransBorder
  6
Continuous
370
    50
100
AcDbVertex
100
AcDb2dVertex
 10
15.2400004863739
 20
213.7002944946289
 30
0.0
  0
VERTEX
  5
B3
330
AD
100
AcDbEntity
  8
2dTransBorder
  6
Continuous
370
    50
100
AcDbVertex
100
AcDb2dVertex
 10
19.0499997138977
 20
215.9000015258789
 30
0.0
  0
SEQEND
  5
B0
330
AD
100
AcDbEntity
  8
2dTransBorder
  6
Continuous
370
    50
  0
POLYLINE
  5
B4
330
95
100
AcDbEntity
  8
2dTransBorder
  6
Continuous
370
    50
100
AcDb2dPolyline
 66
     1
 10
0.0
 20
0.0
 30
0.0
  0
VERTEX
  5
B5
330
B4
100
AcDbEntity
  8
2dTransBorder
  6
Continuous
370
    50
100
AcDbVertex
100
AcDb2dVertex
 10
546.1000061035156
 20
215.9000015258789
 30
0.0
  0
VERTEX
  5
B6
330
B4
100
AcDbEntity
  8
2dTransBorder
  6
Continuous
370
    50
100
AcDbVertex
100
AcDb2dVertex
 10
539.7499847412109
 20
215.9000015258789
 30
0.0
  0
VERTEX
  5
B8
330
B4
100
AcDbEntity
  8
2dTransBorder
  6
Continuous
370
    50
100
AcDbVertex
100
AcDb2dVertex
 10
543.5599899291992
 20
218.0997085571289
 30
0.0
  0
VERTEX
  5
B9
330
B4
100
AcDbEntity
  8
2dTransBorder
  6
Continuous
370
    50
100
AcDbVertex
100
AcDb2dVertex
 10
543.5599899291992
 20
213.7002944946289
 30
0.0
  0
VERTEX
  5
BA
330
B4
100
AcDbEntity
  8
2dTransBorder
  6
Continuous
370
    50
100
AcDbVertex
100
AcDb2dVertex
 10
539.7499847412109
 20
215.9000015258789
 30
0.0
  0
SEQEND
  5
B7
330
B4
100
AcDbEntity
  8
2dTransBorder
  6
Continuous
370
    50
  0
POLYLINE
  5
BB
330
95
100
AcDbEntity
  8
2dTransBorder
  6
Continuous
370
    50
100
AcDb2dPolyline
 66
     1
 10
0.0
 20
0.0
 30
0.0
  0
VERTEX
  5
BC
330
BB
100
AcDbEntity
  8
2dTransBorder
  6
Continuous
370
    50
100
AcDbVertex
100
AcDb2dVertex
 10
139.7000026702881
 20
12.69999980926513
 30
0.0
  0
VERTEX
  5
BD
330
BB
100
AcDbEntity
  8
2dTransBorder
  6
Continuous
370
    50
100
AcDbVertex
100
AcDb2dVertex
 10
139.7000026702881
 20
8.633999824523925
 30
0.0
  0
SEQEND
  5
BE
330
BB
100
AcDbEntity
  8
2dTransBorder
  6
Continuous
370
    50
  0
POLYLINE
  5
BF
330
95
100
AcDbEntity
  8
2dTransBorder
  6
Continuous
370
    50
100
AcDb2dPolyline
 66
     1
 10
0.0
 20
0.0
 30
0.0
  0
VERTEX
  5
C0
330
BF
100
AcDbEntity
  8
2dTransBorder
  6
Continuous
370
    50
100
AcDbVertex
100
AcDb2dVertex
 10
139.7000026702881
 20
419.099998474121
 30
0.0
  0
VERTEX
  5
C1
330
BF
100
AcDbEntity
  8
2dTransBorder
  6
Continuous
370
    50
100
AcDbVertex
100
AcDb2dVertex
 10
139.7000026702881
 20
423.1660079956054
 30
0.0
  0
SEQEND
  5
C2
330
BF
100
AcDbEntity
  8
2dTransBorder
  6
Continuous
370
    50
  0
POLYLINE
  5
C3
330
95
100
AcDbEntity
  8
2dTransBorder
  6
Continuous
370
    50
100
AcDb2dPolyline
 66
     1
 10
0.0
 20
0.0
 30
0.0
  0
VERTEX
  5
C4
330
C3
100
AcDbEntity
  8
2dTransBorder
  6
Continuous
370
    50
100
AcDbVertex
100
AcDb2dVertex
 10
419.099998474121
 20
12.69999980926513
 30
0.0
  0
VERTEX
  5
C5
330
C3
100
AcDbEntity
  8
2dTransBorder
  6
Continuous
370
    50
100
AcDbVertex
100
AcDb2dVertex
 10
419.099998474121
 20
8.633999824523925
 30
0.0
  0
SEQEND
  5
C6
330
C3
100
AcDbEntity
  8
2dTransBorder
  6
Continuous
370
    50
  0
POLYLINE
  5
C7
330
95
100
AcDbEntity
  8
2dTransBorder
  6
Continuous
370
    50
100
AcDb2dPolyline
 66
     1
 10
0.0
 20
0.0
 30
0.0
  0
VERTEX
  5
C8
330
C7
100
AcDbEntity
  8
2dTransBorder
  6
Continuous
370
    50
100
AcDbVertex
100
AcDb2dVertex
 10
419.099998474121
 20
419.099998474121
 30
0.0
  0
VERTEX
  5
C9
330
C7
100
AcDbEntity
  8
2dTransBorder
  6
Continuous
370
    50
100
AcDbVertex
100
AcDb2dVertex
 10
419.099998474121
 20
423.1660079956054
 30
0.0
  0
SEQEND
  5
CA
330
C7
100
AcDbEntity
  8
2dTransBorder
  6
Continuous
370
    50
  0
MTEXT
  5
CB
330
95
100
AcDbEntity
  8
2dTransBorder
  6
Continuous
370
    50
100
AcDbMText
 10
487.765567791462
 20
420.1159999999999
 30
0.0
 40
3.050000071525573
 41
0.0
 71
     7
 72
     1
  1
1
  7
Text Style12
 73
     1
 44
1.0
  0
MTEXT
  5
CD
330
95
100
AcDbEntity
  8
2dTransBorder
  6
Continuous
370
    50
100
AcDbMText
 10
487.765567791462
 20
8.633999928474425
 30
0.0
 40
3.050000071525573
 41
0.0
 71
     7
 72
     1
  1
1
  7
Text Style12
 73
     1
 44
1.0
  0
MTEXT
  5
CE
330
95
100
AcDbEntity
  8
2dTransBorder
  6
Continuous
 62
    18
420
        0
370
    50
100
AcDbMText
 10
348.065567791462
 20
420.1159999999999
 30
0.0
 40
3.050000071525573
 41
0.0
 71
     7
 72
     1
  1
2
  7
Text Style12
 73
     1
 44
1.0
  0
MTEXT
  5
CF
330
95
100
AcDbEntity
  8
2dTransBorder
  6
Continuous
370
    50
100
AcDbMText
 10
348.065567791462
 20
8.633999928474425
 30
0.0
 40
3.050000071525573
 41
0.0
 71
     7
 72
     1
  1
2
  7
Text Style12
 73
     1
 44
1.0
  0
MTEXT
  5
D0
330
95
100
AcDbEntity
  8
2dTransBorder
  6
Continuous
 62
    18
420
        0
370
    50
100
AcDbMText
 10
208.365567791462
 20
420.1159999999999
 30
0.0
 40
3.050000071525573
 41
0.0
 71
     7
 72
     1
  1
3
  7
Text Style12
 73
     1
 44
1.0
  0
MTEXT
  5
D1
330
95
100
AcDbEntity
  8
2dTransBorder
  6
Continuous
 62
    18
420
        0
370
    50
100
AcDbMText
 10
208.365567791462
 20
8.633999928474425
 30
0.0
 40
3.050000071525573
 41
0.0
 71
     7
 72
     1
  1
3
  7
Text Style12
 73
     1
 44
1.0
  0
MTEXT
  5
D2
330
95
100
AcDbEntity
  8
2dTransBorder
  6
Continuous
 62
    18
420
        0
370
    50
100
AcDbMText
 10
68.665567791462
 20
420.1159999999999
 30
0.0
 40
3.050000071525573
 41
0.0
 71
     7
 72
     1
  1
4
  7
Text Style12
 73
     1
 44
1.0
  0
MTEXT
  5
D3
330
95
100
AcDbEntity
  8
2dTransBorder
  6
Continuous
370
    50
100
AcDbMText
 10
68.665567791462
 20
8.633999928474427
 30
0.0
 40
3.050000071525573
 41
0.0
 71
     7
 72
     1
  1
4
  7
Text Style12
 73
     1
 44
1.0
  0
POLYLINE
  5
D4
330
95
100
AcDbEntity
  8
2dTransBorder
  6
Continuous
370
    50
100
AcDb2dPolyline
 66
     1
 10
0.0
 20
0.0
 30
0.0
  0
VERTEX
  5
D5
330
D4
100
AcDbEntity
  8
2dTransBorder
  6
Continuous
370
    50
100
AcDbVertex
100
AcDb2dVertex
 10
19.0499997138977
 20
107.9500007629394
 30
0.0
  0
VERTEX
  5
D6
330
D4
100
AcDbEntity
  8
2dTransBorder
  6
Continuous
370
    50
100
AcDbVertex
100
AcDb2dVertex
 10
14.98399972915649
 20
107.9500007629394
 30
0.0
  0
SEQEND
  5
D7
330
D4
100
AcDbEntity
  8
2dTransBorder
  6
Continuous
370
    50
  0
POLYLINE
  5
D8
330
95
100
AcDbEntity
  8
2dTransBorder
  6
Continuous
370
    50
100
AcDb2dPolyline
 66
     1
 10
0.0
 20
0.0
 30
0.0
  0
VERTEX
  5
D9
330
D8
100
AcDbEntity
  8
2dTransBorder
  6
Continuous
370
    50
100
AcDbVertex
100
AcDb2dVertex
 10
539.7499847412109
 20
107.9500007629394
 30
0.0
  0
VERTEX
  5
DA
330
D8
100
AcDbEntity
  8
2dTransBorder
  6
Continuous
370
    50
100
AcDbVertex
100
AcDb2dVertex
 10
543.8159942626953
 20
107.9500007629394
 30
0.0
  0
SEQEND
  5
DB
330
D8
100
AcDbEntity
  8
2dTransBorder
  6
Continuous
370
    50
  0
POLYLINE
  5
DC
330
95
100
AcDbEntity
  8
2dTransBorder
  6
Continuous
370
    50
100
AcDb2dPolyline
 66
     1
 10
0.0
 20
0.0
 30
0.0
  0
VERTEX
  5
DD
330
DC
100
AcDbEntity
  8
2dTransBorder
  6
Continuous
370
    50
100
AcDbVertex
100
AcDb2dVertex
 10
19.0499997138977
 20
323.849983215332
 30
0.0
  0
VERTEX
  5
DE
330
DC
100
AcDbEntity
  8
2dTransBorder
  6
Continuous
370
    50
100
AcDbVertex
100
AcDb2dVertex
 10
14.98399972915649
 20
323.849983215332
 30
0.0
  0
SEQEND
  5
DF
330
DC
100
AcDbEntity
  8
2dTransBorder
  6
Continuous
370
    50
  0
POLYLINE
  5
E0
330
95
100
AcDbEntity
  8
2dTransBorder
  6
Continuous
370
    50
100
AcDb2dPolyline
 66
     1
 10
0.0
 20
0.0
 30
0.0
  0
VERTEX
  5
E1
330
E0
100
AcDbEntity
  8
2dTransBorder
  6
Continuous
370
    50
100
AcDbVertex
100
AcDb2dVertex
 10
539.7499847412109
 20
323.849983215332
 30
0.0
  0
VERTEX
  5
E2
330
E0
100
AcDbEntity
  8
2dTransBorder
  6
Continuous
370
    50
100
AcDbVertex
100
AcDb2dVertex
 10
543.8159942626953
 20
323.849983215332
 30
0.0
  0
SEQEND
  5
E3
330
E0
100
AcDbEntity
  8
2dTransBorder
  6
Continuous
370
    50
  0
MTEXT
  5
E4
330
95
100
AcDbEntity
  8
2dTransBorder
  6
Continuous
 62
   178
420
        1
370
    50
100
AcDbMText
 10
15.0816371049881
 20
52.44999996423722
 30
0.0
 40
3.050000071525573
 41
0.0
 71
     7
 72
     1
  1
A
  7
Text Style12
 73
     1
 44
1.0
  0
MTEXT
  5
E5
330
95
100
AcDbEntity
  8
2dTransBorder
  6
Continuous
 62
   178
420
    65538
370
    50
100
AcDbMText
 10
540.8636371765136
 20
52.44999996423722
 30
0.0
 40
3.050000071525573
 41
0.0
 71
     7
 72
     1
  1
A
  7
Text Style12
 73
     1
 44
1.0
  0
MTEXT
  5
E6
330
95
100
AcDbEntity
  8
2dTransBorder
  6
Continuous
370
    50
100
AcDbMText
 10
15.08744885587692
 20
160.3999999642372
 30
0.0
 40
3.050000071525573
 41
0.0
 71
     7
 72
     1
  1
B
  7
Text Style12
 73
     1
 44
1.0
  0
MTEXT
  5
E7
330
95
100
AcDbEntity
  8
2dTransBorder
  6
Continuous
370
    50
100
AcDbMText
 10
540.8694489274024
 20
160.3999999642372
 30
0.0
 40
3.050000071525573
 41
0.0
 71
     7
 72
     1
  1
B
  7
Text Style12
 73
     1
 44
1.0
  0
MTEXT
  5
E8
330
95
100
AcDbEntity
  8
2dTransBorder
  6
Continuous
370
    50
100
AcDbMText
 10
14.97005169653892
 20
268.3499999642372
 30
0.0
 40
3.050000071525573
 41
0.0
 71
     7
 72
     1
  1
C
  7
Text Style12
 73
     1
 44
1.0
  0
MTEXT
  5
E9
330
95
100
AcDbEntity
  8
2dTransBorder
  6
Continuous
 62
    18
420
        0
370
    50
100
AcDbMText
 10
540.7520517680644
 20
268.3499999642372
 30
0.0
 40
3.050000071525573
 41
0.0
 71
     7
 72
     1
  1
C
  7
Text Style12
 73
     1
 44
1.0
  0
MTEXT
  5
EA
330
95
100
AcDbEntity
  8
2dTransBorder
  6
Continuous
370
    50
100
AcDbMText
 10
14.97005169653892
 20
376.2999999642372
 30
0.0
 40
3.050000071525573
 41
0.0
 71
     7
 72
     1
  1
D
  7
Text Style12
 73
     1
 44
1.0
  0
MTEXT
  5
EB
330
95
100
AcDbEntity
  8
2dTransBorder
  6
Continuous
 62
   178
420
        1
370
    50
100
AcDbMText
 10
540.7520517680644
 20
376.2999999642372
 30
0.0
 40
3.050000071525573
 41
0.0
 71
     7
 72
     1
  1
D
  7
Text Style12
 73
     1
 44
1.0
  0
ENDBLK
  5
97
330
95
100
AcDbEntity
  8
0
100
AcDbBlockEnd
  0
BLOCK
  5
EF
330
EE
100
AcDbEntity
  8
0
100
AcDbBlockBegin
  2
Title Blocks ANSI - Large
 70
     2
 10
225.298255
 20
158.75031875
 30
0.0
  3
Title Blocks ANSI - Large
  1

  0
LINE
  5
F1
330
EE
100
AcDbEntity
  8
2dTransTitleBlock
370
    50
100
AcDbLine
 10
127.000255
 20
190.5003825
 30
0.0
 11
127.000255
 21
127.000255
 31
0.0
  0
LINE
  5
F2
330
EE
100
AcDbEntity
  8
2dTransTitleBlock
370
    50
100
AcDbLine
 10
127.000255
 20
127.000255
 30
0.0
 11
323.596255
 21
127.000255
 31
0.0
  0
LINE
  5
F3
330
EE
100
AcDbEntity
  8
2dTransTitleBlock
370
    50
100
AcDbLine
 10
323.596255
 20
127.000255
 30
0.0
 11
323.596255
 21
190.5003825
 31
0.0
  0
LINE
  5
F4
330
EE
100
AcDbEntity
  8
2dTransTitleBlock
370
    50
100
AcDbLine
 10
323.596255
 20
190.5003825
 30
0.0
 11
127.000255
 21
190.5003825
 31
0.0
  0
LINE
  5
F5
330
EE
100
AcDbEntity
  8
2dTransTitleBlock
370
    50
100
AcDbLine
 10
196.0486588236159
 20
127.000255
 30
0.0
 11
196.0486588236159
 21
190.5003825
 31
0.0
  0
LINE
  5
F6
330
EE
100
AcDbEntity
  8
2dTransTitleBlock
370
    50
100
AcDbLine
 10
196.0486588236159
 20
174.75235088
 30
0.0
 11
323.596255
 21
174.75235088
 31
0.0
  0
LINE
  5
F7
330
EE
100
AcDbEntity
  8
2dTransTitleBlock
370
    50
100
AcDbLine
 10
323.596255
 20
146.05029325
 30
0.0
 11
196.0486588236159
 21
146.05029325
 31
0.0
  0
LINE
  5
F8
330
EE
100
AcDbEntity
  8
2dTransTitleBlock
  6
Continuous
370
    50
100
AcDbLine
 10
323.596255
 20
133.3502677500001
 30
0.0
 11
196.0486588236159
 21
133.35026775
 31
0.0
  0
LINE
  5
F9
330
EE
100
AcDbEntity
  8
2dTransTitleBlock
  6
Continuous
370
    50
100
AcDbLine
 10
196.0486588236159
 20
133.35026775
 30
0.0
 11
127.000255
 21
133.35026775
 31
0.0
  0
LINE
  5
FA
330
EE
100
AcDbEntity
  8
2dTransTitleBlock
  6
Continuous
370
    50
100
AcDbLine
 10
207.2995976782074
 20
133.35026775
 30
0.0
 11
207.2995976782074
 21
146.05029325
 31
0.0
  0
LINE
  5
FB
330
EE
100
AcDbEntity
  8
2dTransTitleBlock
  6
Continuous
370
    50
100
AcDbLine
 10
225.29845237
 20
133.35026775
 30
0.0
 11
225.29845237
 21
127.000255
 31
0.0
  0
LINE
  5
FC
330
EE
100
AcDbEntity
  8
2dTransTitleBlock
  6
Continuous
370
    50
100
AcDbLine
 10
231.64846512
 20
133.35026775
 30
0.0
 11
231.64846512
 21
146.05029325
 31
0.0
  0
LINE
  5
FD
330
EE
100
AcDbEntity
  8
2dTransTitleBlock
  6
Continuous
370
    50
100
AcDbLine
 10
271.01854417
 20
133.35026775
 30
0.0
 11
271.01854417
 21
127.000255
 31
0.0
  0
LINE
  5
FE
330
EE
100
AcDbEntity
  8
2dTransTitleBlock
  6
Continuous
370
    50
100
AcDbLine
 10
307.84861812
 20
133.35026775
 30
0.0
 11
307.84861812
 21
146.05029325
 31
0.0
  0
LINE
  5
FF
330
EE
100
AcDbEntity
  8
2dTransTitleBlock
  6
Continuous
370
    50
100
AcDbLine
 10
171.45034425
 20
127.000255
 30
0.0
 11
171.45034425
 21
190.5003825
 31
0.0
  0
LINE
  5
100
330
EE
100
AcDbEntity
  8
2dTransTitleBlock
  6
Continuous
370
    50
100
AcDbLine
 10
127.000255
 20
142.875286875
 30
0.0
 11
196.0486588236159
 21
142.875286875
 31
0.0
  0
LINE
  5
101
330
EE
100
AcDbEntity
  8
2dTransTitleBlock
  6
Continuous
370
    50
100
AcDbLine
 10
127.000255
 20
152.400306
 30
0.0
 11
196.0486588236159
 21
152.400306
 31
0.0
  0
LINE
  5
102
330
EE
100
AcDbEntity
  8
2dTransTitleBlock
  6
Continuous
370
    50
100
AcDbLine
 10
127.000255
 20
161.925325125
 30
0.0
 11
196.0486588236159
 21
161.925325125
 31
0.0
  0
LINE
  5
103
330
EE
100
AcDbEntity
  8
2dTransTitleBlock
  6
Continuous
370
    50
100
AcDbLine
 10
127.000255
 20
171.45034425
 30
0.0
 11
196.0486588236159
 21
171.45034425
 31
0.0
  0
LINE
  5
104
330
EE
100
AcDbEntity
  8
2dTransTitleBlock
  6
Continuous
370
    50
100
AcDbLine
 10
127.000255
 20
180.975363375
 30
0.0
 11
196.0486588236159
 21
180.975363375
 31
0.0
  0
MTEXT
  5
105
330
EE
100
AcDbEntity
  8
2dTransTitleBlock
370
     5
100
AcDbMText
 10
196.9417189601734
 20
173.9584490549892
 30
0.0
 40
2.540000081062316
 41
9.662454724311828
 71
     1
 72
     1
  1
\fArial|b0|i0;\W1.00;\H2.5400;\lTITLE
  7
Current-ANSI
 73
     2
 44
0.7831141948699952
  0
MTEXT
  5
106
330
EE
100
AcDbEntity
  8
2dTransTitleBlock
370
     5
100
AcDbMText
 10
202.0023041465527
 20
145.3246016202697
 30
0.0
 40
2.540000081062316
 41
7.889100909233093
 71
     2
 72
     1
  1
\fArial|b0|i0;\W1.00;\H2.5400;\lSIZE
  7
Current-ANSI
 73
     2
 44
0.7831141948699952
  0
MTEXT
  5
107
330
EE
100
AcDbEntity
  8
2dTransTitleBlock
370
     5
100
AcDbMText
 10
232.3602786215266
 20
145.3921472651283
 30
0.0
 40
2.540000081062316
 41
14.98251676559448
 71
     1
 72
     1
  1
\fArial|b0|i0;\W1.00;\H2.5400;\lDWG NO
  7
Current-ANSI
 73
     2
 44
0.7831141948699952
  0
MTEXT
  5
108
330
EE
100
AcDbEntity
  8
2dTransTitleBlock
370
     5
100
AcDbMText
 10
315.4580720161222
 20
145.4539351538367
 30
0.0
 40
2.540000081062316
 41
7.298628687858581
 71
     2
 72
     1
  1
\fArial|b0|i0;\W1.00;\H2.5400;\lREV
  7
Current-ANSI
 73
     2
 44
0.7831141948699952
  0
MTEXT
  5
109
330
EE
100
AcDbEntity
  8
2dTransTitleBlock
370
     5
100
AcDbMText
 10
196.4325766810957
 20
130.3866512398336
 30
0.0
 40
2.540000081062316
 41
11.6390860080719
 71
     7
 72
     1
  1
\fArial|b0|i0;\W1.00;\H2.5400;\lSCALE
  7
Current-ANSI
 73
     2
 44
0.7831141948699952
  0
MTEXT
  5
10A
330
EE
100
AcDbEntity
  8
2dTransTitleBlock
370
     5
100
AcDbMText
 10
271.5
 20
128.0
 30
0.0
 40
2.540000081062316
 41
11.83462023735046
 71
     7
 72
     1
  1
\fArial|b0|i0;\W1.00;\H2.5400;\lSHEET
  7
Current-ANSI
 73
     2
 44
0.7831141948699952
  0
MTEXT
  5
10B
330
EE
100
AcDbEntity
  8
2dTransTitleBlock
370
     5
100
AcDbMText
 10
300.0
 20
128.0
 30
0.0
 40
2.540000081062316
 41
4.928994178771972
 71
     7
 72
     1
  1
\fArial|b0|i0;\W1.00;\H2.5400;\lOF
  7
Current-ANSI
 73
     2
 44
0.7831141948699952
  0
MTEXT
  5
10C
330
EE
100
AcDbEntity
  8
2dTransTitleBlock
370
     5
100
AcDbMText
 10
127.38162851784
 20
190.0
 30
0.0
 40
2.540000081062316
 41
13.40663194656372
 71
     1
 72
     1
  1
\fArial|b0|i0;\W1.00;\H2.5400;\lDRAWN
  7
Current-ANSI
 73
     2
 44
0.7831141948699952
  0
MTEXT
  5
10D
330
EE
100
AcDbEntity
  8
2dTransTitleBlock
370
     5
100
AcDbMText
 10
127.38162851784
 20
180.5
 30
0.0
 40
2.540000081062316
 41
17.35602259635925
 71
     1
 72
     1
  1
\fArial|b0|i0;\W1.00;\H2.5400;\lCHECKED
  7
Current-ANSI
 73
     2
 44
0.7831141948699952
  0
MTEXT
  5
10E
330
EE
100
AcDbEntity
  8
2dTransTitleBlock
370
     5
100
AcDbMText
 10
128.1416113120312
 20
170.9631371465121
 30
0.0
 40
2.540000081062316
 41
0.0
 71
     1
 72
     1
  1
\fArial|b0|i0;\W1.00;\H2.5400;\lQA
  7
Current-ANSI
 73
     2
 44
0.7831141948699952
  0
MTEXT
  5
10F
330
EE
100
AcDbEntity
  8
2dTransTitleBlock
370
     5
100
AcDbMText
 10
127.7706480615607
 20
161.2396507053429
 30
0.0
 40
2.540000081062316
 41
0.0
 71
     1
 72
     1
  1
\fArial|b0|i0;\W1.00;\H2.5400;\lMFG
  7
Current-ANSI
 73
     2
 44
0.7831141948699952
  0
MTEXT
  5
110
330
EE
100
AcDbEntity
  8
2dTransTitleBlock
370
     5
100
AcDbMText
 10
127.8982296048435
 20
151.6084015690024
 30
0.0
 40
2.540000081062316
 41
0.0
 71
     1
 72
     1
  1
\fArial|b0|i0;\W1.00;\H2.5400;\lAPPROVED
  7
Current-ANSI
 73
     2
 44
0.7831141948699952
  0
ATTDEF
  5
111
330
EE
100
AcDbEntity
  8
2dTransTitleBlock
100
AcDbText
 10
197.7467733702573
 20
154.4257041150555
 30
0.0
 40
4.775199890136718
  1

  7
Current-ANSI
 11
197.7467733702573
 21
156.8133040601238
 31
0.0
100
AcDbAttributeDefinition
  3
TITLE
  2
TITLE
 70
     0
 74
     2
  0
ATTDEF
  5
112
330
EE
100
AcDbEntity
  8
2dTransTitleBlock
100
AcDbText
 10
232.9255022532487
 20
135.4175841865015
 30
0.0
 40
4.775199890136718
  1
20000A_base
  7
Current-ANSI
 11
232.9255022532487
 21
134.0039165519044
 31
0.0
100
AcDbAttributeDefinition
  3
PART NUMBER
  2
PART_NUMBER
 70
     0
 74
     1
  0
ATTDEF
  5
113
330
EE
100
AcDbEntity
  8
2dTransTitleBlock
100
AcDbText
 10
289.9582428122975
 20
129.0589835613308
 30
0.0
 40
3.174999952316284
  1
1 
  7
Current-ANSI
 72
     1
 11
291.8077994011639
 21
128.1190449669889
 31
0.0
100
AcDbAttributeDefinition
  3
Sheet number
  2
Sheet_number
 70
     0
 74
     1
  0
ATTDEF
  5
114
330
EE
100
AcDbEntity
  8
2dTransTitleBlock
100
AcDbText
 10
308.916898101238
 20
128.9399385943419
 30
0.0
 40
3.174999952316284
  1
1 
  7
Current-ANSI
 11
308.916898101238
 21
128.0
 31
0.0
100
AcDbAttributeDefinition
  3
Number of sheets
  2
Number_of_sheets
 70
     0
 74
     1
  0
ATTDEF
  5
115
330
EE
100
AcDbEntity
  8
2dTransTitleBlock
100
AcDbText
 10
314.4888906528935
 20
136.2145153707524
 30
0.0
 40
3.174999952316284
  1
1
  7
Current-ANSI
 72
     1
 11
315.7222893383261
 21
137.8020153469105
 31
0.0
100
AcDbAttributeDefinition
  3
REVISION NUMBER
  2
REVISION_NUMBER
 70
     0
 74
     2
  0
ATTDEF
  5
116
330
EE
100
AcDbEntity
  8
2dTransTitleBlock
100
AcDbText
 10
199.5379150959232
 20
135.1124000549316
 30
0.0
 40
4.775199890136718
  1
C
  7
Current-ANSI
 72
     1
 11
201.9466874825235
 21
137.5
 31
0.0
100
AcDbAttributeDefinition
  3
Sheet Size
  2
Sheet_Size
 70
     0
 74
     2
  0
ATTDEF
  5
117
330
EE
100
AcDbEntity
  8
2dTransTitleBlock
100
AcDbText
 10
259.8621535957465
 20
180.884717654784
 30
0.0
 40
3.174999952316284
  1

  7
Current-ANSI
 72
     1
 11
259.8621535957465
 21
182.4722176309421
 31
0.0
100
AcDbAttributeDefinition
  3
COMPANY
  2
COMPANY
 70
     0
 74
     2
  0
ATTDEF
  5
118
330
EE
100
AcDbEntity
  8
2dTransTitleBlock
100
AcDbText
 10
127.7995146045161
 20
182.7962532210504
 30
0.0
 40
3.174999952316284
  1
Chuck Warren
  7
Current-ANSI
 11
127.7995146045161
 21
181.8563146267084
 31
0.0
100
AcDbAttributeDefinition
  3
AUTHOR
  2
AUTHOR
 70
     0
 74
     1
  0
ATTDEF
  5
119
330
EE
100
AcDbEntity
  8
2dTransTitleBlock
100
AcDbText
 10
172.0074821581669
 20
182.4261625025414
 30
0.0
 40
3.174999952316284
  1
3/14/2007
  7
Current-ANSI
 11
172.0074821581669
 21
181.4862239081995
 31
0.0
100
AcDbAttributeDefinition
  3
CREATION DATE
  2
CREATION_DATE
 70
     0
 74
     1
  0
ATTDEF
  5
11A
330
EE
100
AcDbEntity
  8
2dTransTitleBlock
100
AcDbText
 10
127.6320614557839
 20
172.7701260269904
 30
0.0
 40
3.174999952316284
  1

  7
Current-ANSI
 11
127.6320614557839
 21
171.8301874326485
 31
0.0
100
AcDbAttributeDefinition
  3
CHECKED BY
  2
CHECKED_BY
 70
     0
 74
     1
  0
ATTDEF
  5
11B
330
EE
100
AcDbEntity
  8
2dTransTitleBlock
100
AcDbText
 10
172.0074821581668
 20
173.0684228862922
 30
0.0
 40
3.174999952316284
  1

  7
Current-ANSI
 11
172.0074821581668
 21
172.1284842919503
 31
0.0
100
AcDbAttributeDefinition
  3
CHECKED DATE
  2
CHECKED_DATE
 70
     0
 74
     1
  0
ATTDEF
  5
11C
330
EE
100
AcDbEntity
  8
2dTransTitleBlock
100
AcDbText
 10
127.7649967396263
 20
144.1736090188208
 30
0.0
 40
3.174999952316284
  1

  7
Current-ANSI
 11
127.7649967396263
 21
143.2336704244789
 31
0.0
100
AcDbAttributeDefinition
  3
ENG APPROVED BY
  2
ENG_APPROVED_BY
 70
     0
 74
     1
  0
ATTDEF
  5
11D
330
EE
100
AcDbEntity
  8
2dTransTitleBlock
100
AcDbText
 10
172.0074821581669
 20
144.1594217920871
 30
0.0
 40
3.174999952316284
  1

  7
Current-ANSI
 11
172.0074821581669
 21
143.2194831977452
 31
0.0
100
AcDbAttributeDefinition
  3
ENG APPROVAL DATE
  2
ENG_APPROVAL_DATE
 70
     0
 74
     1
  0
ATTDEF
  5
11E
330
EE
100
AcDbEntity
  8
2dTransTitleBlock
100
AcDbText
 10
127.7336624243035
 20
153.7959831856672
 30
0.0
 40
3.174999952316284
  1

  7
Current-ANSI
 11
127.7336624243035
 21
152.8560445913253
 31
0.0
100
AcDbAttributeDefinition
  3
MFG APPROVED BY
  2
MFG_APPROVED_BY
 70
     0
 74
     1
  0
ATTDEF
  5
11F
330
EE
100
AcDbEntity
  8
2dTransTitleBlock
100
AcDbText
 10
172.1046822379183
 20
153.7447753996264
 30
0.0
 40
3.174999952316284
  1

  7
Current-ANSI
 11
172.1046822379183
 21
152.8048368052845
 31
0.0
100
AcDbAttributeDefinition
  3
MFG APPROVED DATE
  2
MFG_APPROVED_DATE
 70
     0
 74
     1
  0
ENDBLK
  5
F0
330
EE
100
AcDbEntity
  8
0
100
AcDbBlockEnd
  0
BLOCK
  5
13E
330
138
100
AcDbEntity
  8
0
100
AcDbBlockBegin
  2
*D4
 70
     1
 10
0.0
 20
0.0
 30
0.0
  3
*D4
  1

  0
LINE
  5
1A6
330
138
100
AcDbEntity
  8
0
  6
Continuous
 62
   250
370
    25
100
AcDbLine
 10
1450.471819997017
 20
1353.930445227181
 30
0.0
 11
1433.552494097477
 21
1353.930445227181
 31
0.0
  0
LINE
  5
1A7
330
138
100
AcDbEntity
  8
0
  6
Continuous
 62
   250
370
    25
100
AcDbLine
 10
1433.552494097477
 20
1353.930445227181
 30
0.0
 11
1412.87953237563
 21
1313.210976238441
 31
0.0
  0
MTEXT
  5
1A8
330
138
100
AcDbEntity
  8
0
  6
Continuous
 62
    18
370
    25
100
AcDbMText
 10
1489.978618087059
 20
1353.930445227182
 30
0.0
 40
25.0
 41
0.0
 71
     5
 72
     1
  1
\A1;\U+220513
  7
Text Style20
 73
     1
 44
1.0
  0
SOLID
  5
1A9
330
138
100
AcDbEntity
  8
0
  6
Continuous
 62
   250
100
AcDbTrace
 10
1411.021893283006
 20
1314.154085341004
 30
0.0
 11
1414.737171468252
 21
1312.267867135878
 31
0.0
 12
1407.220877760253
 22
1302.065141682703
 32
0.0
 13
1407.220877760253
 23
1302.065141682703
 33
0.0
  0
LINE
  5
1AA
330
138
100
AcDbEntity
  8
0
  6
Continuous
 62
   250
370
    25
100
AcDbLine
 10
1377.345873760296
 20
1244.106801992866
 30
0.0
 11
1378.245873760296
 21
1244.106801992866
 31
0.0
  0
LINE
  5
1AB
330
138
100
AcDbEntity
  8
0
  6
Continuous
 62
   250
370
    25
100
AcDbLine
 10
1377.795873760296
 20
1243.656801992866
 30
0.0
 11
1377.795873760296
 21
1244.556801992866
 31
0.0
  0
POINT
  5
1AC
330
138
100
AcDbEntity
  8
Defpoints
  6
Continuous
 62
     0
100
AcDbPoint
 10
1407.220877760253
 20
1302.065141682703
 30
0.0
  0
POINT
  5
1AD
330
138
100
AcDbEntity
  8
Defpoints
  6
Continuous
 62
     0
100
AcDbPoint
 10
1348.370869760338
 20
1186.148462303029
 30
0.0
  0
ENDBLK
  5
13F
330
138
100
AcDbEntity
  8
0
100
AcDbBlockEnd
  0
BLOCK
  5
1BA
330
1AF
100
AcDbEntity
  8
0
100
AcDbBlockBegin
  2
*D5
 70
     1
 10
0.0
 20
0.0
 30
0.0
  3
*D5
  1

  0
LINE
  5
244
330
1AF
100
AcDbEntity
  8
0
  6
Continuous
 62
   250
370
    25
100
AcDbLine
 10
1148.233373760295
 20
1044.106801992866
 30
0.0
 11
1533.670873760296
 21
1044.106801992866
 31
0.0
  0
LINE
  5
245
330
1AF
100
AcDbEntity
  8
0
  6
Continuous
 62
   250
370
    25
100
AcDbLine
 10
1385.733373760295
 20
1244.106801992866
 30
0.0
 11
1533.670873760296
 21
1244.106801992866
 31
0.0
  0
LINE
  5
246
330
1AF
100
AcDbEntity
  8
0
  6
Continuous
 62
   250
370
    25
100
AcDbLine
 10
1517.795873760296
 20
1056.606801992866
 30
0.0
 11
1517.795873760296
 21
1120.232726115993
 31
0.0
  0
LINE
  5
247
330
1AF
100
AcDbEntity
  8
0
  6
Continuous
 62
   250
370
    25
100
AcDbLine
 10
1517.795873760296
 20
1231.606801992866
 30
0.0
 11
1517.795873760296
 21
1161.763375502077
 31
0.0
  0
SOLID
  5
248
330
1AF
100
AcDbEntity
  8
0
  6
Continuous
 62
   250
100
AcDbTrace
 10
1515.712540426962
 20
1056.606801992866
 30
0.0
 11
1519.879207093629
 21
1056.606801992866
 31
0.0
 12
1517.795873760296
 22
1044.106801992866
 32
0.0
 13
1517.795873760296
 23
1044.106801992866
 33
0.0
  0
SOLID
  5
249
330
1AF
100
AcDbEntity
  8
0
  6
Continuous
 62
   250
100
AcDbTrace
 10
1515.712540426962
 20
1231.606801992866
 30
0.0
 11
1519.879207093629
 21
1231.606801992866
 31
0.0
 12
1517.795873760296
 22
1244.106801992866
 32
0.0
 13
1517.795873760296
 23
1244.106801992866
 33
0.0
  0
MTEXT
  5
24A
330
1AF
100
AcDbEntity
  8
0
  6
Continuous
 62
    18
370
    25
100
AcDbMText
 10
1517.795873760295
 20
1140.998050809035
 30
0.0
 40
25.0
 41
0.0
 71
     5
 72
     1
  1
\A1;20
  7
Text Style20
 73
     1
 44
1.0
  0
POINT
  5
24B
330
1AF
100
AcDbEntity
  8
Defpoints
  6
Continuous
 62
     0
100
AcDbPoint
 10
1140.295873760296
 20
1044.106801992866
 30
0.0
  0
POINT
  5
24C
330
1AF
100
AcDbEntity
  8
Defpoints
  6
Continuous
 62
     0
100
AcDbPoint
 10
1377.795873760295
 20
1244.106801992866
 30
0.0
  0
POINT
  5
24D
330
1AF
100
AcDbEntity
  8
Defpoints
  6
Continuous
 62
     0
100
AcDbPoint
 10
1517.795873760296
 20
1244.106801992866
 30
0.0
  0
ENDBLK
  5
1BB
330
1AF
100
AcDbEntity
  8
0
100
AcDbBlockEnd
  0
BLOCK
  5
25A
330
24F
100
AcDbEntity
  8
0
100
AcDbBlockBegin
  2
*D6
 70
     1
 10
0.0
 20
0.0
 30
0.0
  3
*D6
  1

  0
LINE
  5
2DE
330
24F
100
AcDbEntity
  8
0
  6
Continuous
 62
   250
370
    25
100
AcDbLine
 10
1140.295873760296
 20
1036.169301992866
 30
0.0
 11
1140.295873760296
 21
963.8876196339463
 31
0.0
  0
LINE
  5
2DF
330
24F
100
AcDbEntity
  8
0
  6
Continuous
 62
   250
370
    25
100
AcDbLine
 10
1377.795873760295
 20
1236.169301992866
 30
0.0
 11
1377.795873760295
 21
963.8876196339465
 31
0.0
  0
LINE
  5
2E0
330
24F
100
AcDbEntity
  8
0
  6
Continuous
 62
   250
370
    25
100
AcDbLine
 10
1152.795873760296
 20
979.7626196339463
 30
0.0
 11
1197.361173958297
 21
979.7626196339463
 31
0.0
  0
LINE
  5
2E1
330
24F
100
AcDbEntity
  8
0
  6
Continuous
 62
   250
370
    25
100
AcDbLine
 10
1365.295873760296
 20
979.7626196339463
 30
0.0
 11
1298.339299469893
 21
979.7626196339463
 31
0.0
  0
SOLID
  5
2E2
330
24F
100
AcDbEntity
  8
0
  6
Continuous
 62
   250
100
AcDbTrace
 10
1152.795873760296
 20
981.8459529672795
 30
0.0
 11
1152.795873760296
 21
977.679286300613
 31
0.0
 12
1140.295873760296
 22
979.7626196339463
 32
0.0
 13
1140.295873760296
 23
979.7626196339463
 33
0.0
  0
SOLID
  5
2E3
330
24F
100
AcDbEntity
  8
0
  6
Continuous
 62
   250
100
AcDbTrace
 10
1365.295873760296
 20
981.8459529672795
 30
0.0
 11
1365.295873760296
 21
977.679286300613
 31
0.0
 12
1377.795873760295
 22
979.7626196339463
 32
0.0
 13
1377.795873760295
 23
979.7626196339463
 33
0.0
  0
MTEXT
  5
2E4
330
24F
100
AcDbEntity
  8
0
  6
Continuous
 62
    18
370
    25
100
AcDbMText
 10
1247.850236714095
 20
979.7626196339463
 30
0.0
 40
25.0
 41
0.0
 71
     5
 72
     1
  1
\A1;23.75
  7
Text Style20
 73
     1
 44
1.0
  0
POINT
  5
2E5
330
24F
100
AcDbEntity
  8
Defpoints
  6
Continuous
 62
     0
100
AcDbPoint
 10
1140.295873760296
 20
1044.106801992866
 30
0.0
  0
POINT
  5
2E6
330
24F
100
AcDbEntity
  8
Defpoints
  6
Continuous
 62
     0
100
AcDbPoint
 10
1377.795873760295
 20
1244.106801992866
 30
0.0
  0
POINT
  5
2E7
330
24F
100
AcDbEntity
  8
Defpoints
  6
Continuous
 62
     0
100
AcDbPoint
 10
1377.795873760295
 20
979.7626196339463
 30
0.0
  0
ENDBLK
  5
25B
330
24F
100
AcDbEntity
  8
0
100
AcDbBlockEnd
  0
BLOCK
  5
2F6
330
2EB
100
AcDbEntity
  8
0
100
AcDbBlockBegin
  2
*D7
 70
     1
 10
0.0
 20
0.0
 30
0.0
  3
*D7
  1

  0
LINE
  5
37A
330
2EB
100
AcDbEntity
  8
0
  6
Continuous
 62
   250
370
    25
100
AcDbLine
 10
1623.233373760295
 20
1444.106801992866
 30
0.0
 11
1823.732930958272
 21
1444.106801992866
 31
0.0
  0
LINE
  5
37B
330
2EB
100
AcDbEntity
  8
0
  6
Continuous
 62
   250
370
    25
100
AcDbLine
 10
1623.233373760295
 20
1044.106801992866
 30
0.0
 11
1823.732930958272
 21
1044.106801992866
 31
0.0
  0
LINE
  5
37C
330
2EB
100
AcDbEntity
  8
0
  6
Continuous
 62
   250
370
    25
100
AcDbLine
 10
1807.857930958272
 20
1431.606801992866
 30
0.0
 11
1807.857930958272
 21
1250.573940910735
 31
0.0
  0
LINE
  5
37D
330
2EB
100
AcDbEntity
  8
0
  6
Continuous
 62
   250
370
    25
100
AcDbLine
 10
1807.857930958272
 20
1056.606801992866
 30
0.0
 11
1807.857930958272
 21
1209.04329152465
 31
0.0
  0
SOLID
  5
37E
330
2EB
100
AcDbEntity
  8
0
  6
Continuous
 62
   250
100
AcDbTrace
 10
1805.774597624938
 20
1431.606801992866
 30
0.0
 11
1809.941264291605
 21
1431.606801992866
 31
0.0
 12
1807.857930958272
 22
1444.106801992866
 32
0.0
 13
1807.857930958272
 23
1444.106801992866
 33
0.0
  0
SOLID
  5
37F
330
2EB
100
AcDbEntity
  8
0
  6
Continuous
 62
   250
100
AcDbTrace
 10
1805.774597624938
 20
1056.606801992866
 30
0.0
 11
1809.941264291605
 21
1056.606801992866
 31
0.0
 12
1807.857930958272
 22
1044.106801992866
 32
0.0
 13
1807.857930958272
 23
1044.106801992866
 33
0.0
  0
MTEXT
  5
380
330
2EB
100
AcDbEntity
  8
0
  6
Continuous
 62
    18
370
    25
100
AcDbMText
 10
1807.857930958271
 20
1229.808616217693
 30
0.0
 40
25.0
 41
0.0
 71
     5
 72
     1
  1
\A1;40
  7
Text Style20
 73
     1
 44
1.0
  0
POINT
  5
381
330
2EB
100
AcDbEntity
  8
Defpoints
  6
Continuous
 62
     0
100
AcDbPoint
 10
1615.295873760295
 20
1444.106801992866
 30
0.0
  0
POINT
  5
382
330
2EB
100
AcDbEntity
  8
Defpoints
  6
Continuous
 62
     0
100
AcDbPoint
 10
1615.295873760295
 20
1044.106801992866
 30
0.0
  0
POINT
  5
383
330
2EB
100
AcDbEntity
  8
Defpoints
  6
Continuous
 62
     0
100
AcDbPoint
 10
1807.857930958272
 20
1044.106801992866
 30
0.0
  0
ENDBLK
  5
2F7
330
2EB
100
AcDbEntity
  8
0
100
AcDbBlockEnd
  0
BLOCK
  5
390
330
385
100
AcDbEntity
  8
0
100
AcDbBlockBegin
  2
*D8
 70
     1
 10
0.0
 20
0.0
 30
0.0
  3
*D8
  1

  0
LINE
  5
414
330
385
100
AcDbEntity
  8
0
  6
Continuous
 62
   250
370
    25
100
AcDbLine
 10
1140.295873760296
 20
1452.044301992867
 30
0.0
 11
1140.295873760296
 21
1582.68176736662
 31
0.0
  0
LINE
  5
415
330
385
100
AcDbEntity
  8
0
  6
Continuous
 62
   250
370
    25
100
AcDbLine
 10
1615.295873760295
 20
1452.044301992867
 30
0.0
 11
1615.295873760295
 21
1582.68176736662
 31
0.0
  0
LINE
  5
416
330
385
100
AcDbEntity
  8
0
  6
Continuous
 62
   250
370
    25
100
AcDbLine
 10
1152.795873760296
 20
1566.80676736662
 30
0.0
 11
1331.14838234581
 21
1566.80676736662
 31
0.0
  0
LINE
  5
417
330
385
100
AcDbEntity
  8
0
  6
Continuous
 62
   250
370
    25
100
AcDbLine
 10
1602.795873760296
 20
1566.80676736662
 30
0.0
 11
1413.282715224391
 21
1566.80676736662
 31
0.0
  0
SOLID
  5
418
330
385
100
AcDbEntity
  8
0
  6
Continuous
 62
   250
100
AcDbTrace
 10
1152.795873760296
 20
1568.890100699953
 30
0.0
 11
1152.795873760296
 21
1564.723434033286
 31
0.0
 12
1140.295873760296
 22
1566.80676736662
 32
0.0
 13
1140.295873760296
 23
1566.80676736662
 33
0.0
  0
SOLID
  5
419
330
385
100
AcDbEntity
  8
0
  6
Continuous
 62
   250
100
AcDbTrace
 10
1602.795873760296
 20
1568.890100699953
 30
0.0
 11
1602.795873760296
 21
1564.723434033286
 31
0.0
 12
1615.295873760295
 22
1566.80676736662
 32
0.0
 13
1615.295873760295
 23
1566.80676736662
 33
0.0
  0
MTEXT
  5
41A
330
385
100
AcDbEntity
  8
0
  6
Continuous
 62
    18
370
    25
100
AcDbMText
 10
1372.215548785101
 20
1566.80676736662
 30
0.0
 40
25.0
 41
0.0
 71
     5
 72
     1
  1
\A1;47.5
  7
Text Style20
 73
     1
 44
1.0
  0
POINT
  5
41B
330
385
100
AcDbEntity
  8
Defpoints
  6
Continuous
 62
     0
100
AcDbPoint
 10
1140.295873760296
 20
1444.106801992866
 30
0.0
  0
POINT
  5
41C
330
385
100
AcDbEntity
  8
Defpoints
  6
Continuous
 62
     0
100
AcDbPoint
 10
1615.295873760295
 20
1444.106801992866
 30
0.0
  0
POINT
  5
41D
330
385
100
AcDbEntity
  8
Defpoints
  6
Continuous
 62
     0
100
AcDbPoint
 10
1615.295873760295
 20
1566.80676736662
 30
0.0
  0
ENDBLK
  5
391
330
385
100
AcDbEntity
  8
0
100
AcDbBlockEnd
  0
BLOCK
  5
427
330
41E
100
AcDbEntity
  8
0
100
AcDbBlockBegin
  2
*D9
 70
     1
 10
0.0
 20
0.0
 30
0.0
  3
*D9
  1

  0
LINE
  5
41F
330
41E
100
AcDbEntity
  8
0
  6
Continuous
 62
   250
370
    25
100
AcDbLine
 10
145.0471819997017
 20
135.3930445227181
 30
0.0
 11
143.3552494097476
 21
135.3930445227181
 31
0.0
  0
LINE
  5
420
330
41E
100
AcDbEntity
  8
0
  6
Continuous
 62
   250
370
    25
100
AcDbLine
 10
143.3552494097476
 20
135.3930445227181
 30
0.0
 11
141.2879532375629
 21
131.3210976238441
 31
0.0
  0
MTEXT
  5
421
330
41E
100
AcDbEntity
  8
0
  6
Continuous
 62
    18
370
    25
100
AcDbMText
 10
148.9978618087058
 20
135.3930445227182
 30
0.0
 40
2.5
 41
0.0
 71
     5
 72
     1
  1
\A1;\U+220513
  7
Text Style20
 73
     1
 44
1.0
  0
SOLID
  5
422
330
41E
100
AcDbEntity
  8
0
  6
Continuous
 62
   250
100
AcDbTrace
 10
141.1021893283006
 20
131.4154085341004
 30
0.0
 11
141.4737171468252
 21
131.2267867135878
 31
0.0
 12
140.7220877760253
 22
130.2065141682703
 32
0.0
 13
140.7220877760253
 23
130.2065141682703
 33
0.0
  0
LINE
  5
423
330
41E
100
AcDbEntity
  8
0
  6
Continuous
 62
   250
370
    25
100
AcDbLine
 10
137.7345873760295
 20
124.4106801992866
 30
0.0
 11
137.8245873760295
 21
124.4106801992866
 31
0.0
  0
LINE
  5
424
330
41E
100
AcDbEntity
  8
0
  6
Continuous
 62
   250
370
    25
100
AcDbLine
 10
137.7795873760295
 20
124.3656801992866
 30
0.0
 11
137.7795873760295
 21
124.4556801992866
 31
0.0
  0
POINT
  5
425
330
41E
100
AcDbEntity
  8
Defpoints
  6
Continuous
 62
     0
100
AcDbPoint
 10
140.7220877760253
 20
130.2065141682703
 30
0.0
  0
POINT
  5
426
330
41E
100
AcDbEntity
  8
Defpoints
  6
Continuous
 62
     0
100
AcDbPoint
 10
134.8370869760338
 20
118.6148462303029
 30
0.0
  0
ENDBLK
  5
428
330
41E
100
AcDbEntity
  8
0
100
AcDbBlockEnd
  0
BLOCK
  5
434
330
429
100
AcDbEntity
  8
0
100
AcDbBlockBegin
  2
*D10
 70
     1
 10
0.0
 20
0.0
 30
0.0
  3
*D10
  1

  0
LINE
  5
42A
330
429
100
AcDbEntity
  8
0
  6
Continuous
 62
   250
370
    25
100
AcDbLine
 10
114.8233373760295
 20
104.4106801992866
 30
0.0
 11
153.3670873760296
 21
104.4106801992866
 31
0.0
  0
LINE
  5
42B
330
429
100
AcDbEntity
  8
0
  6
Continuous
 62
   250
370
    25
100
AcDbLine
 10
138.5733373760295
 20
124.4106801992866
 30
0.0
 11
153.3670873760296
 21
124.4106801992866
 31
0.0
  0
LINE
  5
42C
330
429
100
AcDbEntity
  8
0
  6
Continuous
 62
   250
370
    25
100
AcDbLine
 10
151.7795873760296
 20
105.6606801992866
 30
0.0
 11
151.7795873760296
 21
112.0232726115993
 31
0.0
  0
LINE
  5
42D
330
429
100
AcDbEntity
  8
0
  6
Continuous
 62
   250
370
    25
100
AcDbLine
 10
151.7795873760296
 20
123.1606801992866
 30
0.0
 11
151.7795873760296
 21
116.1763375502077
 31
0.0
  0
SOLID
  5
42E
330
429
100
AcDbEntity
  8
0
  6
Continuous
 62
   250
100
AcDbTrace
 10
151.5712540426962
 20
105.6606801992866
 30
0.0
 11
151.9879207093629
 21
105.6606801992866
 31
0.0
 12
151.7795873760296
 22
104.4106801992866
 32
0.0
 13
151.7795873760296
 23
104.4106801992866
 33
0.0
  0
SOLID
  5
42F
330
429
100
AcDbEntity
  8
0
  6
Continuous
 62
   250
100
AcDbTrace
 10
151.5712540426962
 20
123.1606801992866
 30
0.0
 11
151.9879207093629
 21
123.1606801992866
 31
0.0
 12
151.7795873760296
 22
124.4106801992866
 32
0.0
 13
151.7795873760296
 23
124.4106801992866
 33
0.0
  0
MTEXT
  5
430
330
429
100
AcDbEntity
  8
0
  6
Continuous
 62
    18
370
    25
100
AcDbMText
 10
151.7795873760295
 20
114.0998050809035
 30
0.0
 40
2.5
 41
0.0
 71
     5
 72
     1
  1
\A1;20
  7
Text Style20
 73
     1
 44
1.0
  0
POINT
  5
431
330
429
100
AcDbEntity
  8
Defpoints
  6
Continuous
 62
     0
100
AcDbPoint
 10
114.0295873760295
 20
104.4106801992866
 30
0.0
  0
POINT
  5
432
330
429
100
AcDbEntity
  8
Defpoints
  6
Continuous
 62
     0
100
AcDbPoint
 10
137.7795873760295
 20
124.4106801992866
 30
0.0
  0
POINT
  5
433
330
429
100
AcDbEntity
  8
Defpoints
  6
Continuous
 62
     0
100
AcDbPoint
 10
151.7795873760296
 20
124.4106801992866
 30
0.0
  0
ENDBLK
  5
435
330
429
100
AcDbEntity
  8
0
100
AcDbBlockEnd
  0
BLOCK
  5
441
330
436
100
AcDbEntity
  8
0
100
AcDbBlockBegin
  2
*D11
 70
     1
 10
0.0
 20
0.0
 30
0.0
  3
*D11
  1

  0
LINE
  5
437
330
436
100
AcDbEntity
  8
0
  6
Continuous
 62
   250
370
    25
100
AcDbLine
 10
114.0295873760295
 20
103.6169301992866
 30
0.0
 11
114.0295873760295
 21
96.38876196339463
 31
0.0
  0
LINE
  5
438
330
436
100
AcDbEntity
  8
0
  6
Continuous
 62
   250
370
    25
100
AcDbLine
 10
137.7795873760295
 20
123.6169301992866
 30
0.0
 11
137.7795873760295
 21
96.38876196339465
 31
0.0
  0
LINE
  5
439
330
436
100
AcDbEntity
  8
0
  6
Continuous
 62
   250
370
    25
100
AcDbLine
 10
115.2795873760295
 20
97.97626196339464
 30
0.0
 11
119.7361173958297
 21
97.97626196339464
 31
0.0
  0
LINE
  5
43A
330
436
100
AcDbEntity
  8
0
  6
Continuous
 62
   250
370
    25
100
AcDbLine
 10
136.5295873760295
 20
97.97626196339464
 30
0.0
 11
129.8339299469893
 21
97.97626196339464
 31
0.0
  0
SOLID
  5
43B
330
436
100
AcDbEntity
  8
0
  6
Continuous
 62
   250
100
AcDbTrace
 10
115.2795873760295
 20
98.18459529672797
 30
0.0
 11
115.2795873760295
 21
97.7679286300613
 31
0.0
 12
114.0295873760295
 22
97.97626196339464
 32
0.0
 13
114.0295873760295
 23
97.97626196339464
 33
0.0
  0
SOLID
  5
43C
330
436
100
AcDbEntity
  8
0
  6
Continuous
 62
   250
100
AcDbTrace
 10
136.5295873760295
 20
98.18459529672797
 30
0.0
 11
136.5295873760295
 21
97.7679286300613
 31
0.0
 12
137.7795873760295
 22
97.97626196339464
 32
0.0
 13
137.7795873760295
 23
97.97626196339464
 33
0.0
  0
MTEXT
  5
43D
330
436
100
AcDbEntity
  8
0
  6
Continuous
 62
    18
370
    25
100
AcDbMText
 10
124.7850236714095
 20
97.97626196339464
 30
0.0
 40
2.5
 41
0.0
 71
     5
 72
     1
  1
\A1;23.75
  7
Text Style20
 73
     1
 44
1.0
  0
POINT
  5
43E
330
436
100
AcDbEntity
  8
Defpoints
  6
Continuous
 62
     0
100
AcDbPoint
 10
114.0295873760295
 20
104.4106801992866
 30
0.0
  0
POINT
  5
43F
330
436
100
AcDbEntity
  8
Defpoints
  6
Continuous
 62
     0
100
AcDbPoint
 10
137.7795873760295
 20
124.4106801992866
 30
0.0
  0
POINT
  5
440
330
436
100
AcDbEntity
  8
Defpoints
  6
Continuous
 62
     0
100
AcDbPoint
 10
137.7795873760295
 20
97.97626196339464
 30
0.0
  0
ENDBLK
  5
442
330
436
100
AcDbEntity
  8
0
100
AcDbBlockEnd
  0
BLOCK
  5
44E
330
443
100
AcDbEntity
  8
0
100
AcDbBlockBegin
  2
*D12
 70
     1
 10
0.0
 20
0.0
 30
0.0
  3
*D12
  1

  0
LINE
  5
444
330
443
100
AcDbEntity
  8
0
  6
Continuous
 62
   250
370
    25
100
AcDbLine
 10
162.3233373760295
 20
144.4106801992866
 30
0.0
 11
182.3732930958272
 21
144.4106801992866
 31
0.0
  0
LINE
  5
445
330
443
100
AcDbEntity
  8
0
  6
Continuous
 62
   250
370
    25
100
AcDbLine
 10
162.3233373760295
 20
104.4106801992866
 30
0.0
 11
182.3732930958272
 21
104.4106801992866
 31
0.0
  0
LINE
  5
446
330
443
100
AcDbEntity
  8
0
  6
Continuous
 62
   250
370
    25
100
AcDbLine
 10
180.7857930958272
 20
143.1606801992866
 30
0.0
 11
180.7857930958272
 21
125.0573940910735
 31
0.0
  0
LINE
  5
447
330
443
100
AcDbEntity
  8
0
  6
Continuous
 62
   250
370
    25
100
AcDbLine
 10
180.7857930958272
 20
105.6606801992866
 30
0.0
 11
180.7857930958272
 21
120.904329152465
 31
0.0
  0
SOLID
  5
448
330
443
100
AcDbEntity
  8
0
  6
Continuous
 62
   250
100
AcDbTrace
 10
180.5774597624938
 20
143.1606801992866
 30
0.0
 11
180.9941264291605
 21
143.1606801992866
 31
0.0
 12
180.7857930958272
 22
144.4106801992866
 32
0.0
 13
180.7857930958272
 23
144.4106801992866
 33
0.0
  0
SOLID
  5
449
330
443
100
AcDbEntity
  8
0
  6
Continuous
 62
   250
100
AcDbTrace
 10
180.5774597624938
 20
105.6606801992866
 30
0.0
 11
180.9941264291605
 21
105.6606801992866
 31
0.0
 12
180.7857930958272
 22
104.4106801992866
 32
0.0
 13
180.7857930958272
 23
104.4106801992866
 33
0.0
  0
MTEXT
  5
44A
330
443
100
AcDbEntity
  8
0
  6
Continuous
 62
    18
370
    25
100
AcDbMText
 10
180.7857930958271
 20
122.9808616217693
 30
0.0
 40
2.5
 41
0.0
 71
     5
 72
     1
  1
\A1;40
  7
Text Style20
 73
     1
 44
1.0
  0
POINT
  5
44B
330
443
100
AcDbEntity
  8
Defpoints
  6
Continuous
 62
     0
100
AcDbPoint
 10
161.5295873760295
 20
144.4106801992866
 30
0.0
  0
POINT
  5
44C
330
443
100
AcDbEntity
  8
Defpoints
  6
Continuous
 62
     0
100
AcDbPoint
 10
161.5295873760295
 20
104.4106801992866
 30
0.0
  0
POINT
  5
44D
330
443
100
AcDbEntity
  8
Defpoints
  6
Continuous
 62
     0
100
AcDbPoint
 10
180.7857930958272
 20
104.4106801992866
 30
0.0
  0
ENDBLK
  5
44F
330
443
100
AcDbEntity
  8
0
100
AcDbBlockEnd
  0
BLOCK
  5
45B
330
450
100
AcDbEntity
  8
0
100
AcDbBlockBegin
  2
*D13
 70
     1
 10
0.0
 20
0.0
 30
0.0
  3
*D13
  1

  0
LINE
  5
451
330
450
100
AcDbEntity
  8
0
  6
Continuous
 62
   250
370
    25
100
AcDbLine
 10
114.0295873760296
 20
145.2044301992866
 30
0.0
 11
114.0295873760296
 21
158.268176736662
 31
0.0
  0
LINE
  5
452
330
450
100
AcDbEntity
  8
0
  6
Continuous
 62
   250
370
    25
100
AcDbLine
 10
161.5295873760295
 20
145.2044301992866
 30
0.0
 11
161.5295873760295
 21
158.268176736662
 31
0.0
  0
LINE
  5
453
330
450
100
AcDbEntity
  8
0
  6
Continuous
 62
   250
370
    25
100
AcDbLine
 10
115.2795873760296
 20
156.6806767366619
 30
0.0
 11
133.114838234581
 21
156.6806767366619
 31
0.0
  0
LINE
  5
454
330
450
100
AcDbEntity
  8
0
  6
Continuous
 62
   250
370
    25
100
AcDbLine
 10
160.2795873760296
 20
156.6806767366619
 30
0.0
 11
141.3282715224391
 21
156.6806767366619
 31
0.0
  0
SOLID
  5
455
330
450
100
AcDbEntity
  8
0
  6
Continuous
 62
   250
100
AcDbTrace
 10
115.2795873760296
 20
156.8890100699953
 30
0.0
 11
115.2795873760296
 21
156.4723434033286
 31
0.0
 12
114.0295873760296
 22
156.6806767366619
 32
0.0
 13
114.0295873760296
 23
156.6806767366619
 33
0.0
  0
SOLID
  5
456
330
450
100
AcDbEntity
  8
0
  6
Continuous
 62
   250
100
AcDbTrace
 10
160.2795873760296
 20
156.8890100699953
 30
0.0
 11
160.2795873760296
 21
156.4723434033286
 31
0.0
 12
161.5295873760295
 22
156.6806767366619
 32
0.0
 13
161.5295873760295
 23
156.6806767366619
 33
0.0
  0
MTEXT
  5
457
330
450
100
AcDbEntity
  8
0
  6
Continuous
 62
    18
370
    25
100
AcDbMText
 10
137.2215548785101
 20
156.6806767366619
 30
0.0
 40
2.5
 41
0.0
 71
     5
 72
     1
  1
\A1;47.5
  7
Text Style20
 73
     1
 44
1.0
  0
POINT
  5
458
330
450
100
AcDbEntity
  8
Defpoints
  6
Continuous
 62
     0
100
AcDbPoint
 10
114.0295873760296
 20
144.4106801992866
 30
0.0
  0
POINT
  5
459
330
450
100
AcDbEntity
  8
Defpoints
  6
Continuous
 62
     0
100
AcDbPoint
 10
161.5295873760295
 20
144.4106801992866
 30
0.0
  0
POINT
  5
45A
330
450
100
AcDbEntity
  8
Defpoints
  6
Continuous
 62
     0
100
AcDbPoint
 10
161.5295873760295
 20
156.6806767366619
 30
0.0
  0
ENDBLK
  5
45C
330
450
100
AcDbEntity
  8
0
100
AcDbBlockEnd
  0
ENDSEC
  0
SECTION
  2
ENTITIES
  0
INSERT
  5
EC
330
21
100
AcDbEntity
  8
2dTransBorder
100
AcDbBlockReference
  2
Borders Default Border
 10
0.0
 20
0.0
 30
0.0
 41
0.5
 42
0.5
 43
0.5
  0
INSERT
  5
120
330
21
100
AcDbEntity
  8
2dTransTitleBlock
100
AcDbBlockReference
 66
     1
  2
Title Blocks ANSI - Large
 10
220.726
 20
22.22503187500002
 30
0.0
 41
0.5
 42
0.5
 43
0.5
  0
ATTRIB
  5
122
330
120
100
AcDbEntity
  8
2dTransTitleBlock
100
AcDbText
 10
206.9502591851287
 20
20.06272455752773
 30
0.0
 40
2.387599945068359
  1

  7
Current-ANSI
 11
206.9502591851287
 21
21.25652453006191
 31
0.0
100
AcDbAttribute
  2
TITLE
 70
     0
 74
     2
  0
ATTRIB
  5
123
330
120
100
AcDbEntity
  8
2dTransTitleBlock
100
AcDbText
 10
224.5396236266244
 20
10.55866459325074
 30
0.0
 40
2.387599945068359
  1
20000A_base
  7
Current-ANSI
 11
224.5396236266244
 21
9.851830775952201
 31
0.0
100
AcDbAttribute
  2
PART_NUMBER
 70
     0
 74
     1
  0
ATTRIB
  5
124
330
120
100
AcDbEntity
  8
2dTransTitleBlock
100
AcDbText
 10
253.0559939061487
 20
7.379364280665436
 30
0.0
 40
1.587499976158142
  1
1 
  7
Current-ANSI
 72
     1
 11
253.9807722005819
 21
6.909394983494472
 31
0.0
100
AcDbAttribute
  2
Sheet_number
 70
     0
 74
     1
  0
ATTRIB
  5
125
330
120
100
AcDbEntity
  8
2dTransTitleBlock
100
AcDbText
 10
262.535321550619
 20
7.319841797170953
 30
0.0
 40
1.587499976158142
  1
1 
  7
Current-ANSI
 11
262.535321550619
 21
6.849872499999989
 31
0.0
100
AcDbAttribute
  2
Number_of_sheets
 70
     0
 74
     1
  0
ATTRIB
  5
126
330
120
100
AcDbEntity
  8
2dTransTitleBlock
100
AcDbText
 10
265.3213178264467
 20
10.95713018537621
 30
0.0
 40
1.587499976158142
  1
1
  7
Current-ANSI
 72
     1
 11
265.938017169163
 21
11.75088017345528
 31
0.0
100
AcDbAttribute
  2
REVISION_NUMBER
 70
     0
 74
     2
  0
ATTRIB
  5
127
330
120
100
AcDbEntity
  8
2dTransTitleBlock
100
AcDbText
 10
207.8458300479616
 20
10.40607252746582
 30
0.0
 40
2.387599945068359
  1
C
  7
Current-ANSI
 72
     1
 11
209.0502162412618
 21
11.5998725
 31
0.0
100
AcDbAttribute
  2
Sheet_Size
 70
     0
 74
     2
  0
ATTRIB
  5
128
330
120
100
AcDbEntity
  8
2dTransTitleBlock
100
AcDbText
 10
238.0079492978732
 20
33.29223132739202
 30
0.0
 40
1.587499976158142
  1

  7
Current-ANSI
 72
     1
 11
238.0079492978732
 21
34.08598131547109
 31
0.0
100
AcDbAttribute
  2
COMPANY
 70
     0
 74
     2
  0
ATTRIB
  5
129
330
120
100
AcDbEntity
  8
2dTransTitleBlock
100
AcDbText
 10
171.976629802258
 20
34.24799911052521
 30
0.0
 40
1.587499976158142
  1
Chuck Warren
  7
Current-ANSI
 11
171.976629802258
 21
33.77802981335424
 31
0.0
100
AcDbAttribute
  2
AUTHOR
 70
     0
 74
     1
  0
ATTRIB
  5
12A
330
120
100
AcDbEntity
  8
2dTransTitleBlock
100
AcDbText
 10
194.0806135790834
 20
34.06295375127073
 30
0.0
 40
1.587499976158142
  1
3/14/2007
  7
Current-ANSI
 11
194.0806135790834
 21
33.59298445409976
 31
0.0
100
AcDbAttribute
  2
CREATION_DATE
 70
     0
 74
     1
  0
ATTRIB
  5
12B
330
120
100
AcDbEntity
  8
2dTransTitleBlock
100
AcDbText
 10
171.8929032278919
 20
29.2349355134952
 30
0.0
 40
1.587499976158142
  1

  7
Current-ANSI
 11
171.8929032278919
 21
28.76496621632423
 31
0.0
100
AcDbAttribute
  2
CHECKED_BY
 70
     0
 74
     1
  0
ATTRIB
  5
12C
330
120
100
AcDbEntity
  8
2dTransTitleBlock
100
AcDbText
 10
194.0806135790834
 20
29.38408394314614
 30
0.0
 40
1.587499976158142
  1

  7
Current-ANSI
 11
194.0806135790834
 21
28.91411464597517
 31
0.0
100
AcDbAttribute
  2
CHECKED_DATE
 70
     0
 74
     1
  0
ATTRIB
  5
12D
330
120
100
AcDbEntity
  8
2dTransTitleBlock
100
AcDbText
 10
171.9593708698131
 20
14.93667700941042
 30
0.0
 40
1.587499976158142
  1

  7
Current-ANSI
 11
171.9593708698131
 21
14.46670771223946
 31
0.0
100
AcDbAttribute
  2
ENG_APPROVED_BY
 70
     0
 74
     1
  0
ATTRIB
  5
12E
330
120
100
AcDbEntity
  8
2dTransTitleBlock
100
AcDbText
 10
194.0806135790834
 20
14.92958339604357
 30
0.0
 40
1.587499976158142
  1

  7
Current-ANSI
 11
194.0806135790834
 21
14.4596140988726
 31
0.0
100
AcDbAttribute
  2
ENG_APPROVAL_DATE
 70
     0
 74
     1
  0
ATTRIB
  5
12F
330
120
100
AcDbEntity
  8
2dTransTitleBlock
100
AcDbText
 10
171.9437037121517
 20
19.74786409283363
 30
0.0
 40
1.587499976158142
  1

  7
Current-ANSI
 11
171.9437037121517
 21
19.27789479566266
 31
0.0
100
AcDbAttribute
  2
MFG_APPROVED_BY
 70
     0
 74
     1
  0
ATTRIB
  5
130
330
120
100
AcDbEntity
  8
2dTransTitleBlock
100
AcDbText
 10
194.1292136189592
 20
19.72226019981321
 30
0.0
 40
1.587499976158142
  1

  7
Current-ANSI
 11
194.1292136189592
 21
19.25229090264224
 31
0.0
100
AcDbAttribute
  2
MFG_APPROVED_DATE
 70
     0
 74
     1
  0
SEQEND
  5
121
330
120
100
AcDbEntity
  8
2dTransTitleBlock
  0
CIRCLE
  5
131
330
21
100
AcDbEntity
  8
0
  6
Continuous
370
    50
100
AcDbCircle
 10
137.7795873760295
 20
124.4106801992866
 30
0.0
 40
6.5
  0
LINE
  5
132
330
21
100
AcDbEntity
  8
0
  6
Continuous
370
    50
100
AcDbLine
 10
114.0295873760295
 20
104.4106801992866
 30
0.0
 11
114.0295873760296
 21
144.4106801992866
 31
0.0
  0
LINE
  5
133
330
21
100
AcDbEntity
  8
0
  6
Continuous
370
    50
100
AcDbLine
 10
114.0295873760296
 20
144.4106801992866
 30
0.0
 11
161.5295873760295
 21
144.4106801992866
 31
0.0
  0
LINE
  5
134
330
21
100
AcDbEntity
  8
0
  6
Continuous
370
    50
100
AcDbLine
 10
161.5295873760295
 20
144.4106801992866
 30
0.0
 11
161.5295873760295
 21
104.4106801992866
 31
0.0
  0
LINE
  5
135
330
21
100
AcDbEntity
  8
0
  6
Continuous
370
    50
100
AcDbLine
 10
161.5295873760295
 20
104.4106801992866
 30
0.0
 11
114.0295873760295
 21
104.4106801992866
 31
0.0
  0
DIMENSION
  5
136
330
21
100
AcDbEntity
  8
0
  6
Continuous
370
    25
100
AcDbDimension
  2
*D9
 10
134.8370869760338
 20
118.6148462303029
 30
0.0
 11
148.9978618087058
 21
135.3930445227182
 31
0.0
 70
   163
  1
<>
 71
     5
 42
13.00000000000006
  3
MM-ANSI-01
100
AcDbDiametricDimension
 15
140.7220877760253
 25
130.2065141682703
 35
0.0
 40
0.0
1001
ACAD
1000
DSTYLE
1002
{
1070
   271
1070
     2
1070
   340
1005
7B
1070
   272
1070
     2
1070
    47
1040
0.0
1070
    48
1040
0.0
1002
}
  0
DIMENSION
  5
1AE
330
21
100
AcDbEntity
  8
0
  6
Continuous
370
    25
100
AcDbDimension
  2
*D10
 10
151.7795873760296
 20
124.4106801992866
 30
0.0
 11
151.7795873760295
 21
114.0998050809035
 31
0.0
 70
   160
  1
<>
 71
     5
 42
20.0
  3
MM-ANSI-02
100
AcDbAlignedDimension
 13
114.0295873760295
 23
104.4106801992866
 33
0.0
 14
137.7795873760295
 24
124.4106801992866
 34
0.0
 50
270.0
100
AcDbRotatedDimension
1001
ACAD
1000
DSTYLE
1002
{
1070
   271
1070
     2
1070
   340
1005
7B
1070
   272
1070
     2
1070
    47
1040
0.0
1070
    48
1040
0.0
1002
}
  0
DIMENSION
  5
24E
330
21
100
AcDbEntity
  8
0
  6
Continuous
370
    25
100
AcDbDimension
  2
*D11
 10
137.7795873760295
 20
97.97626196339464
 30
0.0
 11
124.7850236714095
 21
97.97626196339464
 31
0.0
 70
   160
  1
<>
 71
     5
 42
23.74999999999999
  3
MM-ANSI-02
100
AcDbAlignedDimension
 13
114.0295873760295
 23
104.4106801992866
 33
0.0
 14
137.7795873760295
 24
124.4106801992866
 34
0.0
 50
180.0
100
AcDbRotatedDimension
1001
ACAD
1000
DSTYLE
1002
{
1070
   271
1070
     2
1070
   340
1005
7B
1070
   272
1070
     2
1070
    47
1040
0.0
1070
    48
1040
0.0
1002
}
  0
MTEXT
  5
2E8
330
21
100
AcDbEntity
  8
0
  6
Continuous
370
     5
100
AcDbMText
 10
39.80803946803384
 20
53.87924128499813
 30
0.0
 40
3.499999940395355
 41
97.54650115966796
 71
     1
 72
     1
  1
{\fArial|b0|i0;\W1.00;\H3.5000;\lMATERIAL: 3/16" C.R. STEEL\PALL DIMENSIONS IN MILLIMETERS U.O.N.}
  7
DEFAULT-ANSI
 73
     2
 44
0.9442214965820312
  0
MTEXT
  5
2E9
330
21
100
AcDbEntity
  8
0
  6
Continuous
370
     5
100
AcDbMText
 10
213.5666988756814
 20
27.61339866936499
 30
0.0
 40
2.5
 41
35.52019596099853
 71
     1
 72
     1
  1
{\fArial|b0|i0;\W1.00;\H2.5000;\lTBIRD REAR SHOCK \PADAPTER BASE}
  7
DEFAULT-ANSI
 73
     2
 44
0.9442214965820312
  0
DIMENSION
  5
2EA
330
21
100
AcDbEntity
  8
0
  6
Continuous
370
    25
100
AcDbDimension
  2
*D12
 10
180.7857930958272
 20
104.4106801992866
 30
0.0
 11
180.7857930958271
 21
122.9808616217693
 31
0.0
 70
   160
  1
<>
 71
     5
 42
40.0
  3
MM-ANSI-02
100
AcDbAlignedDimension
 13
161.5295873760295
 23
144.4106801992866
 33
0.0
 14
161.5295873760295
 24
104.4106801992866
 34
0.0
 50
90.0
100
AcDbRotatedDimension
1001
ACAD
1000
DSTYLE
1002
{
1070
   271
1070
     2
1070
   340
1005
7B
1070
   272
1070
     2
1070
    47
1040
0.0
1070
    48
1040
0.0
1002
}
  0
DIMENSION
  5
384
330
21
100
AcDbEntity
  8
0
  6
Continuous
370
    25
100
AcDbDimension
  2
*D13
 10
161.5295873760295
 20
156.6806767366619
 30
0.0
 11
137.2215548785101
 21
156.6806767366619
 31
0.0
 70
   160
  1
<>
 71
     5
 42
47.49999999999994
  3
MM-ANSI-02
100
AcDbAlignedDimension
 13
114.0295873760296
 23
144.4106801992866
 33
0.0
 14
161.5295873760295
 24
144.4106801992866
 34
0.0
 50
180.0
100
AcDbRotatedDimension
1001
ACAD
1000
DSTYLE
1002
{
1070
   271
1070
     2
1070
   340
1005
7B
1070
   272
1070
     2
1070
    47
1040
0.0
1070
    48
1040
0.0
1002
}
  0
ENDSEC
  0
SECTION
  2
OBJECTS
  0
DICTIONARY
  5
C
330
0
100
AcDbDictionary
281
     1
  3
ACAD_COLOR
350
1C
  3
ACAD_GROUP
350
D
  3
ACAD_LAYOUT
350
1A
  3
ACAD_MATERIAL
350
1B
  3
ACAD_MLINESTYLE
350
17
  3
ACAD_PLOTSETTINGS
350
19
  3
ACAD_PLOTSTYLENAME
350
E
  0
DICTIONARY
  5
1C
102
{ACAD_REACTORS
330
C
102
}
330
C
100
AcDbDictionary
281
     1
  0
DICTIONARY
  5
D
102
{ACAD_REACTORS
330
C
102
}
330
C
100
AcDbDictionary
281
     1
  0
DICTIONARY
  5
1A
102
{ACAD_REACTORS
330
C
102
}
330
C
100
AcDbDictionary
281
     1
  3
Layout1
350
20
  3
Layout2
350
28
  3
Model
350
24
  0
DICTIONARY
  5
1B
102
{ACAD_REACTORS
330
C
102
}
330
C
100
AcDbDictionary
281
     1
  0
DICTIONARY
  5
17
102
{ACAD_REACTORS
330
C
102
}
330
C
100
AcDbDictionary
281
     1
  3
Standard
350
18
  0
DICTIONARY
  5
19
102
{ACAD_REACTORS
330
C
102
}
330
C
100
AcDbDictionary
281
     1
  0
ACDBDICTIONARYWDFLT
  5
E
102
{ACAD_REACTORS
330
C
102
}
330
C
100
AcDbDictionary
281
     1
  3
Normal
350
F
100
AcDbDictionaryWithDefault
340
F
  0
LAYOUT
  5
20
102
{ACAD_REACTORS
330
1A
102
}
330
1A
100
AcDbPlotSettings
  1

  2

  4

  6

 40
0.0
 41
0.0
 42
0.0
 43
0.0
 44
0.0
 45
0.0
 46
0.0
 47
0.0
 48
0.0
 49
0.0
140
0.0
141
0.0
142
1.0
143
1.0
 70
   688
 72
     0
 73
     0
 74
     5
  7

 75
    16
147
1.0
 76
     0
 77
     2
 78
   300
148
0.0
149
0.0
100
AcDbLayout
  1
Layout1
 70
     1
 71
     1
 10
0.0
 20
0.0
 11
354.838
 21
274.193
 12
0.0
 22
0.0
 32
0.0
 14
0.0
 24
0.0
 34
0.0
 15
354.838
 25
274.193
 35
0.0
146
0.0
 13
0.0
 23
0.0
 33
0.0
 16
1.0
 26
0.0
 36
0.0
 17
0.0
 27
1.0
 37
0.0
 76
     0
330
1D
  0
LAYOUT
  5
28
102
{ACAD_REACTORS
330
1A
102
}
330
1A
100
AcDbPlotSettings
  1

  2

  4

  6

 40
0.0
 41
0.0
 42
0.0
 43
0.0
 44
0.0
 45
0.0
 46
0.0
 47
0.0
 48
0.0
 49
0.0
140
0.0
141
0.0
142
1.0
143
1.0
 70
   688
 72
     0
 73
     0
 74
     5
  7

 75
    16
147
1.0
 76
     0
 77
     2
 78
   300
148
0.0
149
0.0
100
AcDbLayout
  1
Layout2
 70
     1
 71
     2
 10
0.0
 20
0.0
 11
12.0
 21
9.0
 12
0.0
 22
0.0
 32
0.0
 14
0.0
 24
0.0
 34
0.0
 15
0.0
 25
0.0
 35
0.0
146
0.0
 13
0.0
 23
0.0
 33
0.0
 16
1.0
 26
0.0
 36
0.0
 17
0.0
 27
1.0
 37
0.0
 76
     0
330
25
  0
LAYOUT
  5
24
102
{ACAD_REACTORS
330
1A
102
}
330
1A
100
AcDbPlotSettings
  1

  2

  4

  6

 40
0.0
 41
0.0
 42
0.0
 43
0.0
 44
0.0
 45
0.0
 46
0.0
 47
0.0
 48
0.0
 49
0.0
140
0.0
141
0.0
142
1.0
143
1.0
 70
  1712
 72
     0
 73
     0
 74
     0
  7

 75
     0
147
1.0
 76
     0
 77
     2
 78
   300
148
0.0
149
0.0
100
AcDbLayout
  1
Model
 70
     1
 71
     0
 10
0.0
 20
0.0
 11
12.0
 21
9.0
 12
0.0
 22
0.0
 32
0.0
 14
0.0
 24
0.0
 34
0.0
 15
0.0
 25
0.0
 35
0.0
146
0.0
 13
0.0
 23
0.0
 33
0.0
 16
1.0
 26
0.0
 36
0.0
 17
0.0
 27
1.0
 37
0.0
 76
     0
330
21
  0
MLINESTYLE
  5
18
102
{ACAD_REACTORS
330
17
102
}
330
17
100
AcDbMlineStyle
  2
STANDARD
 70
     0
  3

 62
   256
 51
90.0
 52
90.0
 71
     2
 49
0.5
 62
   256
  6
BYLAYER
 49
-0.5
 62
   256
  6
BYLAYER
  0
ACDBPLACEHOLDER
  5
F
102
{ACAD_REACTORS
330
E
102
}
330
E
  0
ENDSEC
  0
EOF
