  0
SECTION
  2
HEADER
  9
$ACADVER
  1
AC1018
  9
$ACADMAINTVER
 70
     0
  9
$DWGCODEPAGE
  3
ANSI_1252
  9
$TITLE
  1

  9
$SUBJECT
  1

  9
$AUTHOR
  1
Chuck Warren
  9
$KEYWORDS
  1

  9
$COMMENTS
  1

  9
$REVISIONNUMBER
  1
1
  9
$INSBASE
 10
0.0
 20
0.0
 30
0.0
  9
$EXTMIN
 10
0.0
 20
0.0
 30
0.0
  9
$EXTMAX
 10
354.838
 20
274.193
 30
0.0
  9
$LIMMIN
 10
0.0
 20
0.0
  9
$LIMMAX
 10
354.838
 20
274.193
  9
$ORTHOMODE
 70
     0
  9
$REGENMODE
 70
     1
  9
$FILLMODE
 70
     1
  9
$QTEXTMODE
 70
     0
  9
$MIRRTEXT
 70
     0
  9
$LTSCALE
 40
1.0
  9
$ATTMODE
 70
     1
  9
$TEXTSIZE
 40
0.2
  9
$TRACEWID
 40
0.05
  9
$TEXTSTYLE
  7
Standard
  9
$CLAYER
  8
0
  9
$CELTYPE
  6
ByLayer
  9
$CECOLOR
 62
   256
  9
$CELTSCALE
 40
1.0
  9
$DISPSILH
 70
     0
  9
$DIMSCALE
 40
1.0
  9
$DIMASZ
 40
1.799999999999999
  9
$DIMEXO
 40
0.0625
  9
$DIMDLI
 40
0.38
  9
$DIMRND
 40
0.0
  9
$DIMDLE
 40
0.0
  9
$DIMEXE
 40
0.18
  9
$DIMTP
 40
0.0
  9
$DIMTM
 40
0.0
  9
$DIMTXT
 40
0.3048000037670135
  9
$DIMCEN
 40
0.09
  9
$DIMTSZ
 40
0.0
  9
$DIMTOL
 70
     0
  9
$DIMLIM
 70
     0
  9
$DIMTIH
 70
     1
  9
$DIMTOH
 70
     1
  9
$DIMSE1
 70
     0
  9
$DIMSE2
 70
     0
  9
$DIMTAD
 70
     0
  9
$DIMZIN
 70
     0
  9
$DIMBLK
  1

  9
$DIMASO
 70
     1
  9
$DIMSHO
 70
     1
  9
$DIMPOST
  1

  9
$DIMAPOST
  1

  9
$DIMALT
 70
     0
  9
$DIMALTD
 70
     2
  9
$DIMALTF
 40
25.4
  9
$DIMLFAC
 40
1.0
  9
$DIMTOFL
 70
     0
  9
$DIMTVP
 40
0.0
  9
$DIMTIX
 70
     0
  9
$DIMSOXD
 70
     0
  9
$DIMSAH
 70
     0
  9
$DIMBLK1
  1

  9
$DIMBLK2
  1

  9
$DIMSTYLE
  2
Standard
  9
$DIMCLRD
 70
     0
  9
$DIMCLRE
 70
     0
  9
$DIMCLRT
 70
     0
  9
$DIMTFAC
 40
1.0
  9
$DIMGAP
 40
0.09
  9
$DIMJUST
 70
     0
  9
$DIMSD1
 70
     0
  9
$DIMSD2
 70
     0
  9
$DIMTOLJ
 70
     1
  9
$DIMTZIN
 70
     0
  9
$DIMALTZ
 70
     0
  9
$DIMALTTZ
 70
     0
  9
$DIMUPT
 70
     0
  9
$DIMDEC
 70
     4
  9
$DIMTDEC
 70
     4
  9
$DIMALTU
 70
     2
  9
$DIMALTTD
 70
     2
  9
$DIMTXSTY
  7
Standard
  9
$DIMAUNIT
 70
     0
  9
$DIMADEC
 70
     0
  9
$DIMALTRND
 40
0.0
  9
$DIMAZIN
 70
     0
  9
$DIMDSEP
 70
    46
  9
$DIMATFIT
 70
     3
  9
$DIMFRAC
 70
     0
  9
$DIMLDRBLK
  1

  9
$DIMLUNIT
 70
     2
  9
$DIMLWD
 70
    -2
  9
$DIMLWE
 70
    -2
  9
$DIMTMOVE
 70
     0
  9
$LUNITS
 70
     2
  9
$LUPREC
 70
     4
  9
$SKETCHINC
 40
0.1
  9
$FILLETRAD
 40
0.0
  9
$AUNITS
 70
     0
  9
$AUPREC
 70
     0
  9
$MENU
  1
.
  9
$ELEVATION
 40
0.0
  9
$PELEVATION
 40
0.0
  9
$THICKNESS
 40
0.0
  9
$LIMCHECK
 70
     0
  9
$CHAMFERA
 40
0.0
  9
$CHAMFERB
 40
0.0
  9
$CHAMFERC
 40
0.0
  9
$CHAMFERD
 40
0.0
  9
$SKPOLY
 70
     0
  9
$TDCREATE
 40
2454174.872345012
  9
$TDUCREATE
 40
2454175.080678345
  9
$TDUPDATE
 40
2454174.872345012
  9
$TDUUPDATE
 40
2454175.080678345
  9
$TDINDWG
 40
0.0000984028
  9
$TDUSRTIMER
 40
0.0000984028
  9
$USRTIMER
 70
     1
  9
$ANGBASE
 50
0.0
  9
$ANGDIR
 70
     0
  9
$PDMODE
 70
     0
  9
$PDSIZE
 40
0.0
  9
$PLINEWID
 40
0.0
  9
$SPLFRAME
 70
     0
  9
$SPLINETYPE
 70
     6
  9
$SPLINESEGS
 70
     8
  9
$HANDSEED
  5
84D
  9
$SURFTAB1
 70
     6
  9
$SURFTAB2
 70
     6
  9
$SURFTYPE
 70
     6
  9
$SURFU
 70
     6
  9
$SURFV
 70
     6
  9
$UCSBASE
  2

  9
$UCSNAME
  2

  9
$UCSORG
 10
0.0
 20
0.0
 30
0.0
  9
$UCSXDIR
 10
1.0
 20
0.0
 30
0.0
  9
$UCSYDIR
 10
0.0
 20
1.0
 30
0.0
  9
$UCSORTHOREF
  2

  9
$UCSORTHOVIEW
 70
     0
  9
$UCSORGTOP
 10
0.0
 20
0.0
 30
0.0
  9
$UCSORGBOTTOM
 10
0.0
 20
0.0
 30
0.0
  9
$UCSORGLEFT
 10
0.0
 20
0.0
 30
0.0
  9
$UCSORGRIGHT
 10
0.0
 20
0.0
 30
0.0
  9
$UCSORGFRONT
 10
0.0
 20
0.0
 30
0.0
  9
$UCSORGBACK
 10
0.0
 20
0.0
 30
0.0
  9
$PUCSBASE
  2

  9
$PUCSNAME
  2

  9
$PUCSORG
 10
0.0
 20
0.0
 30
0.0
  9
$PUCSXDIR
 10
1.0
 20
0.0
 30
0.0
  9
$PUCSYDIR
 10
0.0
 20
1.0
 30
0.0
  9
$PUCSORTHOREF
  2

  9
$PUCSORTHOVIEW
 70
     0
  9
$PUCSORGTOP
 10
0.0
 20
0.0
 30
0.0
  9
$PUCSORGBOTTOM
 10
0.0
 20
0.0
 30
0.0
  9
$PUCSORGLEFT
 10
0.0
 20
0.0
 30
0.0
  9
$PUCSORGRIGHT
 10
0.0
 20
0.0
 30
0.0
  9
$PUCSORGFRONT
 10
0.0
 20
0.0
 30
0.0
  9
$PUCSORGBACK
 10
0.0
 20
0.0
 30
0.0
  9
$USERI1
 70
     0
  9
$USERI2
 70
     0
  9
$USERI3
 70
     0
  9
$USERI4
 70
     0
  9
$USERI5
 70
     0
  9
$USERR1
 40
0.0
  9
$USERR2
 40
0.0
  9
$USERR3
 40
0.0
  9
$USERR4
 40
0.0
  9
$USERR5
 40
0.0
  9
$WORLDVIEW
 70
     1
  9
$SHADEDGE
 70
     3
  9
$SHADEDIF
 70
    70
  9
$TILEMODE
 70
     1
  9
$MAXACTVP
 70
    64
  9
$PINSBASE
 10
0.0
 20
0.0
 30
0.0
  9
$PLIMCHECK
 70
     0
  9
$PEXTMIN
 10
0.0
 20
0.0
 30
0.0
  9
$PEXTMAX
 10
354.838
 20
274.193
 30
0.0
  9
$PLIMMIN
 10
0.0
 20
0.0
  9
$PLIMMAX
 10
354.838
 20
274.193
  9
$UNITMODE
 70
     0
  9
$VISRETAIN
 70
     1
  9
$PLINEGEN
 70
     0
  9
$PSLTSCALE
 70
     1
  9
$TREEDEPTH
 70
  3020
  9
$CMLSTYLE
  2
Standard
  9
$CMLJUST
 70
     0
  9
$CMLSCALE
 40
1.0
  9
$PROXYGRAPHICS
 70
     1
  9
$MEASUREMENT
 70
     0
  9
$CELWEIGHT
370
    -1
  9
$ENDCAPS
280
     0
  9
$JOINSTYLE
280
     0
  9
$LWDISPLAY
290
     0
  9
$INSUNITS
 70
     0
  9
$HYPERLINKBASE
  1

  9
$STYLESHEET
  1

  9
$XEDIT
290
     1
  9
$CEPSNTYPE
380
     0
  9
$PSTYLEMODE
290
     1
  9
$FINGERPRINTGUID
  2
{5EA669C5-11F3-43FC-A2EB-A1A7CB7F35F9}
  9
$VERSIONGUID
  2
{7ED52F24-A8D6-4D64-A003-83A581DAC6A5}
  9
$EXTNAMES
290
     1
  9
$PSVPSCALE
 40
0.0
  9
$OLESTARTUP
290
     0
  9
$SORTENTS
280
   127
  9
$INDEXCTL
280
     0
  9
$HIDETEXT
280
     1
  9
$XCLIPFRAME
290
     0
  9
$HALOGAP
280
     0
  9
$OBSCOLOR
 70
   257
  9
$OBSLTYPE
280
     0
  9
$INTERSECTIONDISPLAY
280
     0
  9
$INTERSECTIONCOLOR
 70
   257
  9
$DIMASSOC
280
     1
  9
$PROJECTNAME
  1

  0
ENDSEC
  0
SECTION
  2
CLASSES
  0
CLASS
  1
ACDBDICTIONARYWDFLT
  2
AcDbDictionaryWithDefault
  3
ObjectDBX Classes
 90
        0
 91
        1
280
     0
281
     0
  0
ENDSEC
  0
SECTION
  2
TABLES
  0
TABLE
  2
VPORT
  5
8
330
0
100
AcDbSymbolTable
 70
     1
  0
VPORT
  5
13
330
8
100
AcDbSymbolTableRecord
100
AcDbViewportTableRecord
  2
*Active
 70
     0
 10
0.0
 20
0.0
 11
1.0
 21
1.0
 12
177.419
 22
137.0965
 13
0.0
 23
0.0
 14
1.0
 24
1.0
 15
0.0
 25
0.0
 16
0.0
 26
0.0
 36
1.0
 17
0.0
 27
0.0
 37
0.0
 40
274.193
 41
1.294117647058823
 42
50.0
 43
0.0
 44
0.0
 50
0.0
 51
0.0
 71
     0
 72
   100
 73
     1
 74
     1
 75
     0
 76
     0
 77
     0
 78
     0
281
     0
 65
     1
110
0.0
120
0.0
130
0.0
111
1.0
121
0.0
131
0.0
112
0.0
122
1.0
132
0.0
 79
     0
146
0.0
  0
ENDTAB
  0
TABLE
  2
LTYPE
  5
5
330
0
100
AcDbSymbolTable
 70
    59
  0
LTYPE
  5
14
330
5
100
AcDbSymbolTableRecord
100
AcDbLinetypeTableRecord
  2
ByBlock
 70
     0
  3

 72
    65
 73
     0
 40
0.0
  0
LTYPE
  5
15
330
5
100
AcDbSymbolTableRecord
100
AcDbLinetypeTableRecord
  2
ByLayer
 70
     0
  3

 72
    65
 73
     0
 40
0.0
  0
LTYPE
  5
16
330
5
100
AcDbSymbolTableRecord
100
AcDbLinetypeTableRecord
  2
Continuous
 70
     0
  3
Solid line
 72
    65
 73
     0
 40
0.0
  0
LTYPE
  5
2A
330
5
100
AcDbSymbolTableRecord
100
AcDbLinetypeTableRecord
  2
BY_STANDARD
 70
     0
  3
By Standard ____________    ____    ____   _
 72
    65
 73
     6
 40
1.240299999999999
 49
0.6614
 74
     0
 49
-0.0827
 74
     0
 49
0.1654
 74
     0
 49
-0.0827
 74
     0
 49
0.1654
 74
     0
 49
-0.0827
 74
     0
  0
LTYPE
  5
2B
330
5
100
AcDbSymbolTableRecord
100
AcDbLinetypeTableRecord
  2
CHAIN
 70
     0
  3
Chain ____ _ ____ _ ____ _ ____ _ ____ _ ____
 72
    65
 73
     4
 40
0.7087
 49
0.4724000000000001
 74
     0
 49
-0.0591
 74
     0
 49
0.1181
 74
     0
 49
-0.0591
 74
     0
  0
LTYPE
  5
2C
330
5
100
AcDbSymbolTableRecord
100
AcDbLinetypeTableRecord
  2
DASH_DOT
 70
     0
  3
Dash dot __ . __ . __ . __ . __ . __ . __ . __
 72
    65
 73
     4
 40
0.37
 49
0.24
 74
     0
 49
-0.06
 74
     0
 49
0.01
 74
     0
 49
-0.06
 74
     0
  0
LTYPE
  5
2D
330
5
100
AcDbSymbolTableRecord
100
AcDbLinetypeTableRecord
  2
DOUBLE_DASH_DOT
 70
     0
  3
Double-Dash Dot __ __ . __ __ . __ __ . __ _
 72
    65
 73
     6
 40
0.4398
 49
0.24
 74
     0
 49
-0.06
 74
     0
 49
0.0098
 74
     0
 49
-0.06
 74
     0
 49
0.01
 74
     0
 49
-0.06
 74
     0
  0
LTYPE
  5
2E
330
5
100
AcDbSymbolTableRecord
100
AcDbLinetypeTableRecord
  2
DASH_TRIPLE_DOT
 70
     0
  3
Dash Triple-Dot _ . . . _ . . . _ . . . _
 72
    65
 73
     8
 40
0.51
 49
0.24
 74
     0
 49
-0.06
 74
     0
 49
0.01
 74
     0
 49
-0.06
 74
     0
 49
0.01
 74
     0
 49
-0.06
 74
     0
 49
0.01
 74
     0
 49
-0.06
 74
     0
  0
LTYPE
  5
2F
330
5
100
AcDbSymbolTableRecord
100
AcDbLinetypeTableRecord
  2
DASHED
 70
     0
  3
Dashed __ __ __ __ __ __ __ __ __ __ __ __ __ _
 72
    65
 73
     2
 40
0.2067
 49
0.1654
 74
     0
 49
-0.0413
 74
     0
  0
LTYPE
  5
30
330
5
100
AcDbSymbolTableRecord
100
AcDbLinetypeTableRecord
  2
DASH_DOUBLE_DOT
 70
     0
  3
Dash Double-Dot __ . . __ . . __ . . __ . .
 72
    65
 73
     6
 40
0.4398
 49
0.24
 74
     0
 49
-0.06
 74
     0
 49
0.0098
 74
     0
 49
-0.06
 74
     0
 49
0.01
 74
     0
 49
-0.06
 74
     0
  0
LTYPE
  5
31
330
5
100
AcDbSymbolTableRecord
100
AcDbLinetypeTableRecord
  2
DASHED_SPACE
 70
     0
  3
Dashed Space __ __ __ __ __ __ __ __ __ __ __ _
 72
    65
 73
     2
 40
0.2067
 49
0.1654
 74
     0
 49
-0.0413
 74
     0
  0
LTYPE
  5
32
330
5
100
AcDbSymbolTableRecord
100
AcDbLinetypeTableRecord
  2
DOTTED
 70
     0
  3
Dotted . . . . . . . . . . . . . . . . . . . . 
 72
    65
 73
     2
 40
0.0482
 49
0.0069
 74
     0
 49
-0.0413
 74
     0
  0
LTYPE
  5
33
330
5
100
AcDbSymbolTableRecord
100
AcDbLinetypeTableRecord
  2
DOUBLE_DASH_CHAIN
 70
     0
  3
Double-Dash Chain ______  __  __  ______  __  _
 72
    65
 73
     6
 40
1.240299999999999
 49
0.6614
 74
     0
 49
-0.0827
 74
     0
 49
0.1654
 74
     0
 49
-0.0827
 74
     0
 49
0.1654
 74
     0
 49
-0.0827
 74
     0
  0
LTYPE
  5
35
330
5
100
AcDbSymbolTableRecord
100
AcDbLinetypeTableRecord
  2
DOUBLE_DASH_DOUBLE_DOT
 70
     0
  3
Double-Dash Double-dot _ _ . . _ _ . . _
 72
    65
 73
     8
 40
0.7400000000000001
 49
0.24
 74
     0
 49
-0.06
 74
     0
 49
0.24
 74
     0
 49
-0.06
 74
     0
 49
0.01
 74
     0
 49
-0.06
 74
     0
 49
0.01
 74
     0
 49
-0.06
 74
     0
  0
LTYPE
  5
36
330
5
100
AcDbSymbolTableRecord
100
AcDbLinetypeTableRecord
  2
DOUBLE_DASH_TRIPLE_DOT
 70
     0
  3
Double Dash Triple Dot __ __ . . . __ __ . .
 72
    65
 73
    10
 40
0.8100000000000001
 49
0.24
 74
     0
 49
-0.06
 74
     0
 49
0.24
 74
     0
 49
-0.06
 74
     0
 49
0.01
 74
     0
 49
-0.06
 74
     0
 49
0.01
 74
     0
 49
-0.06
 74
     0
 49
0.01
 74
     0
 49
-0.06
 74
     0
  0
LTYPE
  5
37
330
5
100
AcDbSymbolTableRecord
100
AcDbLinetypeTableRecord
  2
LONG_DASH_DOTTED
 70
     0
  3
Long Dash Dotted ____ . ____ . ____ . ____ . _
 72
    65
 73
     4
 40
0.3543
 49
0.2362
 74
     0
 49
-0.0295
 74
     0
 49
0.0591
 74
     0
 49
-0.0295
 74
     0
  0
LTYPE
  5
38
330
5
100
AcDbSymbolTableRecord
100
AcDbLinetypeTableRecord
  2
LONG_DASH_DOUBLE_DOT
 70
     0
  3
Long Dash Double Dot ________  .  .  ________  
 72
    65
 73
     6
 40
0.6799999999999999
 49
0.48
 74
     0
 49
-0.06
 74
     0
 49
0.01
 74
     0
 49
-0.06
 74
     0
 49
0.01
 74
     0
 49
-0.06
 74
     0
  0
LTYPE
  5
39
330
5
100
AcDbSymbolTableRecord
100
AcDbLinetypeTableRecord
  2
LONG_DASH_TRIPLE_DOT
 70
     0
  3
Long Dash Triple Dot ____ ... ____ ... ____
 72
    65
 73
     8
 40
0.3689
 49
0.2362
 74
     0
 49
-0.0295
 74
     0
 49
0.0049
 74
     0
 49
-0.0295
 74
     0
 49
0.0049
 74
     0
 49
-0.0295
 74
     0
 49
0.0049
 74
     0
 49
-0.0295
 74
     0
  0
LTYPE
  5
3A
330
5
100
AcDbSymbolTableRecord
100
AcDbLinetypeTableRecord
  2
BORDER
 70
     0
  3
Border __ __ . __ __ . __ __ . __ __ . __ __ .
 72
    65
 73
     6
 40
1.75
 49
0.5
 74
     0
 49
-0.25
 74
     0
 49
0.5
 74
     0
 49
-0.25
 74
     0
 49
0.0
 74
     0
 49
-0.25
 74
     0
  0
LTYPE
  5
3B
330
5
100
AcDbSymbolTableRecord
100
AcDbLinetypeTableRecord
  2
BORDER2
 70
     0
  3
Border (.5x) __.__.__.__.__.__.__.__.__.__.__.
 72
    65
 73
     6
 40
0.875
 49
0.25
 74
     0
 49
-0.125
 74
     0
 49
0.25
 74
     0
 49
-0.125
 74
     0
 49
0.0
 74
     0
 49
-0.125
 74
     0
  0
LTYPE
  5
3C
330
5
100
AcDbSymbolTableRecord
100
AcDbLinetypeTableRecord
  2
BORDERX2
 70
     0
  3
Border (2x) ____  ____  .  ____  ____  .  ___
 72
    65
 73
     6
 40
3.5
 49
1.0
 74
     0
 49
-0.5
 74
     0
 49
1.0
 74
     0
 49
-0.5
 74
     0
 49
0.0
 74
     0
 49
-0.5
 74
     0
  0
LTYPE
  5
3D
330
5
100
AcDbSymbolTableRecord
100
AcDbLinetypeTableRecord
  2
CENTER
 70
     0
  3
Center ____ _ ____ _ ____ _ ____ _ ____ _ ____
 72
    65
 73
     4
 40
2.0
 49
1.25
 74
     0
 49
-0.25
 74
     0
 49
0.25
 74
     0
 49
-0.25
 74
     0
  0
LTYPE
  5
3E
330
5
100
AcDbSymbolTableRecord
100
AcDbLinetypeTableRecord
  2
CENTER2
 70
     0
  3
Center (.5x) ___ _ ___ _ ___ _ ___ _ ___ _ ___
 72
    65
 73
     4
 40
1.125
 49
0.75
 74
     0
 49
-0.125
 74
     0
 49
0.125
 74
     0
 49
-0.125
 74
     0
  0
LTYPE
  5
3F
330
5
100
AcDbSymbolTableRecord
100
AcDbLinetypeTableRecord
  2
CENTERX2
 70
     0
  3
Center (2x) ________  __  ________  __  _____
 72
    65
 73
     4
 40
4.0
 49
2.5
 74
     0
 49
-0.5
 74
     0
 49
0.5
 74
     0
 49
-0.5
 74
     0
  0
LTYPE
  5
40
330
5
100
AcDbSymbolTableRecord
100
AcDbLinetypeTableRecord
  2
DASHDOT2
 70
     0
  3
Dash dot (.5x) _._._._._._._._._._._._._._._.
 72
    65
 73
     4
 40
0.5
 49
0.25
 74
     0
 49
-0.125
 74
     0
 49
0.0
 74
     0
 49
-0.125
 74
     0
  0
LTYPE
  5
41
330
5
100
AcDbSymbolTableRecord
100
AcDbLinetypeTableRecord
  2
DASHDOTX2
 70
     0
  3
Dash dot (2x) ____  .  ____  .  ____  .  ___
 72
    65
 73
     4
 40
2.0
 49
1.0
 74
     0
 49
-0.5
 74
     0
 49
0.0
 74
     0
 49
-0.5
 74
     0
  0
LTYPE
  5
43
330
5
100
AcDbSymbolTableRecord
100
AcDbLinetypeTableRecord
  2
DASHED2
 70
     0
  3
Dashed (.5x) _ _ _ _ _ _ _ _ _ _ _ _ _ _ _ _ _
 72
    65
 73
     2
 40
0.375
 49
0.25
 74
     0
 49
-0.125
 74
     0
  0
LTYPE
  5
44
330
5
100
AcDbSymbolTableRecord
100
AcDbLinetypeTableRecord
  2
DASHEDX2
 70
     0
  3
Dashed (2x) ____  ____  ____  ____  ____  ___
 72
    65
 73
     2
 40
1.5
 49
1.0
 74
     0
 49
-0.5
 74
     0
  0
LTYPE
  5
45
330
5
100
AcDbSymbolTableRecord
100
AcDbLinetypeTableRecord
  2
DIVIDE
 70
     0
  3
Divide ____ . . ____ . . ____ . . ____ . . ____
 72
    65
 73
     6
 40
1.25
 49
0.5
 74
     0
 49
-0.25
 74
     0
 49
0.0
 74
     0
 49
-0.25
 74
     0
 49
0.0
 74
     0
 49
-0.25
 74
     0
  0
LTYPE
  5
46
330
5
100
AcDbSymbolTableRecord
100
AcDbLinetypeTableRecord
  2
DIVIDE2
 70
     0
  3
Divide (.5x) __..__..__..__..__..__..__..__.._
 72
    65
 73
     6
 40
0.625
 49
0.25
 74
     0
 49
-0.125
 74
     0
 49
0.0
 74
     0
 49
-0.125
 74
     0
 49
0.0
 74
     0
 49
-0.125
 74
     0
  0
LTYPE
  5
47
330
5
100
AcDbSymbolTableRecord
100
AcDbLinetypeTableRecord
  2
DIVIDEX2
 70
     0
  3
Divide (2x) ________  .  .  ________  .  .  _
 72
    65
 73
     6
 40
2.5
 49
1.0
 74
     0
 49
-0.5
 74
     0
 49
0.0
 74
     0
 49
-0.5
 74
     0
 49
0.0
 74
     0
 49
-0.5
 74
     0
  0
LTYPE
  5
48
330
5
100
AcDbSymbolTableRecord
100
AcDbLinetypeTableRecord
  2
DOT
 70
     0
  3
Dot . . . . . . . . . . . . . . . . . . . . . .
 72
    65
 73
     2
 40
0.25
 49
0.0
 74
     0
 49
-0.25
 74
     0
  0
LTYPE
  5
49
330
5
100
AcDbSymbolTableRecord
100
AcDbLinetypeTableRecord
  2
DOT2
 70
     0
  3
Dot (.5x) .....................................
 72
    65
 73
     2
 40
0.125
 49
0.0
 74
     0
 49
-0.125
 74
     0
  0
LTYPE
  5
4A
330
5
100
AcDbSymbolTableRecord
100
AcDbLinetypeTableRecord
  2
DOTX2
 70
     0
  3
Dot (2x) .  .  .  .  .  .  .  .  .  .  .  .  . 
 72
    65
 73
     2
 40
0.5
 49
0.0
 74
     0
 49
-0.5
 74
     0
  0
LTYPE
  5
4B
330
5
100
AcDbSymbolTableRecord
100
AcDbLinetypeTableRecord
  2
HIDDEN
 70
     0
  3
Hidden __ __ __ __ __ __ __ __ __ __ __ __ __ _
 72
    65
 73
     2
 40
0.375
 49
0.25
 74
     0
 49
-0.125
 74
     0
  0
LTYPE
  5
4C
330
5
100
AcDbSymbolTableRecord
100
AcDbLinetypeTableRecord
  2
HIDDEN2
 70
     0
  3
Hidden (.5x) _ _ _ _ _ _ _ _ _ _ _ _ _ _ _ _ _
 72
    65
 73
     2
 40
0.1875
 49
0.125
 74
     0
 49
-0.0625
 74
     0
  0
LTYPE
  5
4D
330
5
100
AcDbSymbolTableRecord
100
AcDbLinetypeTableRecord
  2
HIDDENX2
 70
     0
  3
Hidden (2x) ____ ____ ____ ____ ____ ____ ____
 72
    65
 73
     2
 40
0.75
 49
0.5
 74
     0
 49
-0.25
 74
     0
  0
LTYPE
  5
4E
330
5
100
AcDbSymbolTableRecord
100
AcDbLinetypeTableRecord
  2
PHANTOM
 70
     0
  3
Phantom ______  __  __  ______  __  __  ______
 72
    65
 73
     6
 40
2.5
 49
1.25
 74
     0
 49
-0.25
 74
     0
 49
0.25
 74
     0
 49
-0.25
 74
     0
 49
0.25
 74
     0
 49
-0.25
 74
     0
  0
LTYPE
  5
4F
330
5
100
AcDbSymbolTableRecord
100
AcDbLinetypeTableRecord
  2
PHANTOM2
 70
     0
  3
Phantom (.5x) ___ _ _ ___ _ _ ___ _ _ ___ _ _
 72
    65
 73
     6
 40
1.25
 49
0.625
 74
     0
 49
-0.125
 74
     0
 49
0.125
 74
     0
 49
-0.125
 74
     0
 49
0.125
 74
     0
 49
-0.125
 74
     0
  0
LTYPE
  5
50
330
5
100
AcDbSymbolTableRecord
100
AcDbLinetypeTableRecord
  2
PHANTOMX2
 70
     0
  3
Phantom (2x) ____________    ____    ____   _
 72
    65
 73
     6
 40
5.0
 49
2.5
 74
     0
 49
-0.5
 74
     0
 49
0.5
 74
     0
 49
-0.5
 74
     0
 49
0.5
 74
     0
 49
-0.5
 74
     0
  0
LTYPE
  5
51
330
5
100
AcDbSymbolTableRecord
100
AcDbLinetypeTableRecord
  2
ACAD_ISO02W100
 70
     0
  3
ISO dash __ __ __ __ __ __ __ __ __ __ __ __ __
 72
    65
 73
     2
 40
0.59
 49
0.47
 74
     0
 49
-0.12
 74
     0
  0
LTYPE
  5
52
330
5
100
AcDbSymbolTableRecord
100
AcDbLinetypeTableRecord
  2
ACAD_ISO03W100
 70
     0
  3
ISO dash space __    __    __    __    __    __
 72
    65
 73
     2
 40
1.179999999999999
 49
0.47
 74
     0
 49
-0.71
 74
     0
  0
LTYPE
  5
53
330
5
100
AcDbSymbolTableRecord
100
AcDbLinetypeTableRecord
  2
ACAD_ISO04W100
 70
     0
  3
ISO long-dash dot ____ . ____ . ____ . ____ . _
 72
    65
 73
     4
 40
1.179999999999999
 49
0.9399999999999998
 74
     0
 49
-0.12
 74
     0
 49
0.0
 74
     0
 49
-0.12
 74
     0
  0
LTYPE
  5
54
330
5
100
AcDbSymbolTableRecord
100
AcDbLinetypeTableRecord
  2
ACAD_ISO05W100
 70
     0
  3
ISO long-dash double-dot ____ .. ____ .. ____ .
 72
    65
 73
     6
 40
1.299999999999999
 49
0.9399999999999998
 74
     0
 49
-0.12
 74
     0
 49
0.0
 74
     0
 49
-0.12
 74
     0
 49
0.0
 74
     0
 49
-0.12
 74
     0
  0
LTYPE
  5
55
330
5
100
AcDbSymbolTableRecord
100
AcDbLinetypeTableRecord
  2
ACAD_ISO06W100
 70
     0
  3
ISO long-dash triple-dot ____ ... ____ ... ____
 72
    65
 73
     8
 40
1.419999999999999
 49
0.9399999999999998
 74
     0
 49
-0.12
 74
     0
 49
0.0
 74
     0
 49
-0.12
 74
     0
 49
0.0
 74
     0
 49
-0.12
 74
     0
 49
0.0
 74
     0
 49
-0.12
 74
     0
  0
LTYPE
  5
56
330
5
100
AcDbSymbolTableRecord
100
AcDbLinetypeTableRecord
  2
ACAD_ISO07W100
 70
     0
  3
ISO dot . . . . . . . . . . . . . . . . . . . .
 72
    65
 73
     2
 40
0.12
 49
0.0
 74
     0
 49
-0.12
 74
     0
  0
LTYPE
  5
57
330
5
100
AcDbSymbolTableRecord
100
AcDbLinetypeTableRecord
  2
ACAD_ISO08W100
 70
     0
  3
ISO long-dash short-dash ____ __ ____ __ ____ _
 72
    65
 73
     4
 40
0.95
 49
0.47
 74
     0
 49
-0.12
 74
     0
 49
0.24
 74
     0
 49
-0.12
 74
     0
  0
LTYPE
  5
58
330
5
100
AcDbSymbolTableRecord
100
AcDbLinetypeTableRecord
  2
ACAD_ISO09W100
 70
     0
  3
ISO long-dash double-short-dash ____ __ __ ____
 72
    65
 73
     6
 40
1.31
 49
0.47
 74
     0
 49
-0.12
 74
     0
 49
0.24
 74
     0
 49
-0.12
 74
     0
 49
0.24
 74
     0
 49
-0.12
 74
     0
  0
LTYPE
  5
59
330
5
100
AcDbSymbolTableRecord
100
AcDbLinetypeTableRecord
  2
ACAD_ISO10W100
 70
     0
  3
ISO dash dot __ . __ . __ . __ . __ . __ . __ .
 72
    65
 73
     4
 40
0.71
 49
0.47
 74
     0
 49
-0.12
 74
     0
 49
0.0
 74
     0
 49
-0.12
 74
     0
  0
LTYPE
  5
5A
330
5
100
AcDbSymbolTableRecord
100
AcDbLinetypeTableRecord
  2
ACAD_ISO11W100
 70
     0
  3
ISO double-dash dot __ __ . __ __ . __ __ . __ 
 72
    65
 73
     6
 40
1.299999999999999
 49
0.47
 74
     0
 49
-0.12
 74
     0
 49
0.47
 74
     0
 49
-0.12
 74
     0
 49
0.0
 74
     0
 49
-0.12
 74
     0
  0
LTYPE
  5
5B
330
5
100
AcDbSymbolTableRecord
100
AcDbLinetypeTableRecord
  2
ACAD_ISO12W100
 70
     0
  3
ISO dash double-dot __ . . __ . . __ . . __ . .
 72
    65
 73
     6
 40
0.8299999999999998
 49
0.47
 74
     0
 49
-0.12
 74
     0
 49
0.0
 74
     0
 49
-0.12
 74
     0
 49
0.0
 74
     0
 49
-0.12
 74
     0
  0
LTYPE
  5
5C
330
5
100
AcDbSymbolTableRecord
100
AcDbLinetypeTableRecord
  2
ACAD_ISO13W100
 70
     0
  3
ISO double-dash double-dot __ __ . . __ __ . . 
 72
    65
 73
     8
 40
1.419999999999999
 49
0.47
 74
     0
 49
-0.12
 74
     0
 49
0.47
 74
     0
 49
-0.12
 74
     0
 49
0.0
 74
     0
 49
-0.12
 74
     0
 49
0.0
 74
     0
 49
-0.12
 74
     0
  0
LTYPE
  5
5D
330
5
100
AcDbSymbolTableRecord
100
AcDbLinetypeTableRecord
  2
ACAD_ISO14W100
 70
     0
  3
ISO dash triple-dot __ . . . __ . . . __ . . . 
 72
    65
 73
     8
 40
0.95
 49
0.47
 74
     0
 49
-0.12
 74
     0
 49
0.0
 74
     0
 49
-0.12
 74
     0
 49
0.0
 74
     0
 49
-0.12
 74
     0
 49
0.0
 74
     0
 49
-0.12
 74
     0
  0
LTYPE
  5
5E
330
5
100
AcDbSymbolTableRecord
100
AcDbLinetypeTableRecord
  2
ACAD_ISO15W100
 70
     0
  3
ISO double-dash triple-dot __ __ . . . __ __ . 
 72
    65
 73
    10
 40
1.539999999999999
 49
0.47
 74
     0
 49
-0.12
 74
     0
 49
0.47
 74
     0
 49
-0.12
 74
     0
 49
0.0
 74
     0
 49
-0.12
 74
     0
 49
0.0
 74
     0
 49
-0.12
 74
     0
 49
0.0
 74
     0
 49
-0.12
 74
     0
  0
LTYPE
  5
61
330
5
100
AcDbSymbolTableRecord
100
AcDbLinetypeTableRecord
  2
FENCELINE1
 70
     0
  3
Fenceline circle ----0-----0----0-----0----0---
 72
    65
 73
     4
 40
1.45
 49
0.25
 74
     0
 49
-0.1
 74
     4
 75
   133
340
60
 46
0.1
 50
0.0
 44
-0.1
 45
0.0
 49
-0.1
 74
     0
 49
1.0
 74
     0
  0
LTYPE
  5
62
330
5
100
AcDbSymbolTableRecord
100
AcDbLinetypeTableRecord
  2
FENCELINE2
 70
     0
  3
Fenceline square ----[]-----[]----[]-----[]----
 72
    65
 73
     4
 40
1.45
 49
0.25
 74
     0
 49
-0.1
 74
     4
 75
   132
340
60
 46
0.1
 50
0.0
 44
-0.1
 45
0.0
 49
-0.1
 74
     0
 49
1.0
 74
     0
  0
LTYPE
  5
63
330
5
100
AcDbSymbolTableRecord
100
AcDbLinetypeTableRecord
  2
TRACKS
 70
     0
  3
Tracks -|-|-|-|-|-|-|-|-|-|-|-|-|-|-|-|-|-|-|-|
 72
    65
 73
     2
 40
0.3
 49
0.15
 74
     4
 75
   130
340
60
 46
0.25
 50
0.0
 44
0.0
 45
0.0
 49
0.15
 74
     0
  0
LTYPE
  5
64
330
5
100
AcDbSymbolTableRecord
100
AcDbLinetypeTableRecord
  2
BATTING
 70
     0
  3
Batting SSSSSSSSSSSSSSSSSSSSSSSSSSSSSSSSSSSSSSS
 72
    65
 73
     4
 40
0.4001000000000001
 49
0.0001
 74
     0
 49
-0.1
 74
     4
 75
   134
340
60
 46
0.1
 50
0.0
 44
-0.1
 45
0.0
 49
-0.2
 74
     4
 75
   134
340
60
 46
0.1
 50
180.0
 44
0.1
 45
0.0
 49
-0.1
 74
     0
  0
LTYPE
  5
65
330
5
100
AcDbSymbolTableRecord
100
AcDbLinetypeTableRecord
  2
HOT_WATER_SUPPLY
 70
     0
  3
Hot water supply ---- HW ---- HW ---- HW ----
 72
    65
 73
     3
 40
0.9
 49
0.5
 74
     0
 49
-0.2
 74
     2
 75
     0
340
11
 46
0.1
 50
0.0
 44
-0.1
 45
-0.05
  9
HW
 49
-0.2
 74
     0
  0
LTYPE
  5
66
330
5
100
AcDbSymbolTableRecord
100
AcDbLinetypeTableRecord
  2
GAS_LINE
 70
     0
  3
Gas line ----GAS----GAS----GAS----GAS----GAS---
 72
    65
 73
     3
 40
0.95
 49
0.5
 74
     0
 49
-0.2
 74
     2
 75
     0
340
11
 46
0.1
 50
0.0
 44
-0.1
 45
-0.05
  9
GAS
 49
-0.25
 74
     0
  0
LTYPE
  5
67
330
5
100
AcDbSymbolTableRecord
100
AcDbLinetypeTableRecord
  2
ZIGZAG
 70
     0
  3
Zig zag /\/\/\/\/\/\/\/\/\/\/\/\/\/\/\/\/\/\/\/
 72
    65
 73
     4
 40
0.8001000000000001
 49
0.0001
 74
     0
 49
-0.2
 74
     4
 75
   131
340
60
 46
0.2
 50
0.0
 44
-0.2
 45
0.0
 49
-0.4
 74
     4
 75
   131
340
60
 46
0.2
 50
180.0
 44
0.2
 45
0.0
 49
-0.2
 74
     0
  0
ENDTAB
  0
TABLE
  2
LAYER
  5
2
330
0
100
AcDbSymbolTable
 70
     4
  0
LAYER
  5
10
330
2
100
AcDbSymbolTableRecord
100
AcDbLayerTableRecord
  2
0
 70
     0
 62
     7
  6
Continuous
370
    -3
390
F
  0
LAYER
  5
95
330
2
100
AcDbSymbolTableRecord
100
AcDbLayerTableRecord
  2
2dTransBorder
 70
     0
 62
     7
  6
Continuous
370
    50
390
F
  0
LAYER
  5
EE
330
2
100
AcDbSymbolTableRecord
100
AcDbLayerTableRecord
  2
2dTransTitleBlock
 70
     0
 62
     7
  6
Continuous
370
    50
390
F
  0
LAYER
  5
141
330
2
100
AcDbSymbolTableRecord
100
AcDbLayerTableRecord
  2
Defpoints
 70
     0
 62
     7
  6
Continuous
290
     0
370
    -3
390
F
  0
ENDTAB
  0
TABLE
  2
STYLE
  5
3
330
0
100
AcDbSymbolTable
 70
    27
  0
STYLE
  5
11
330
3
100
AcDbSymbolTableRecord
100
AcDbTextStyleTableRecord
  2
Standard
 70
     0
 40
0.0
 41
1.0
 50
0.0
 71
     0
 42
0.2
  3
ARIAL.TTF
  4

1001
ACAD
1000
Arial
1071
      256
  0
STYLE
  5
60
330
3
100
AcDbSymbolTableRecord
100
AcDbTextStyleTableRecord
  2

 70
     1
 40
0.0
 41
1.0
 50
0.0
 71
     0
 42
0.2
  3
ltypeshp.shx
  4

  0
STYLE
  5
68
330
3
100
AcDbSymbolTableRecord
100
AcDbTextStyleTableRecord
  2
Text Style1
 70
     0
 40
0.0
 41
1.0
 50
0.0
 71
     0
 42
0.2
  3
ARIAL.TTF
  4

1001
ACAD
1000
Arial
1071
      256
  0
STYLE
  5
69
330
3
100
AcDbSymbolTableRecord
100
AcDbTextStyleTableRecord
  2
Text Style2
 70
     0
 40
0.0
 41
1.0
 50
0.0
 71
     0
 42
0.2
  3
Aigdt___.ttf
  4

1001
ACAD
1000
AIGDT
1071
      514
  0
STYLE
  5
6A
330
3
100
AcDbSymbolTableRecord
100
AcDbTextStyleTableRecord
  2
Text Style3
 70
     0
 40
0.0
 41
1.0
 50
0.0
 71
     0
 42
0.2
  3
TIMES.TTF
  4

1001
ACAD
1000
Times New Roman
1071
      256
  0
STYLE
  5
6B
330
3
100
AcDbSymbolTableRecord
100
AcDbTextStyleTableRecord
  2
Text Style4
 70
     0
 40
0.0
 41
1.0
 50
0.0
 71
     0
 42
0.2
  3
TIMES.TTF
  4

1001
ACAD
1000
Times New Roman
1071
      256
  0
STYLE
  5
6C
330
3
100
AcDbSymbolTableRecord
100
AcDbTextStyleTableRecord
  2
Text Style5
 70
     0
 40
0.0
 41
1.0
 50
0.0
 71
     0
 42
0.2
  3
ARIAL.TTF
  4

1001
ACAD
1000
Arial
1071
      256
  0
STYLE
  5
6D
330
3
100
AcDbSymbolTableRecord
100
AcDbTextStyleTableRecord
  2
Text Style6
 70
     0
 40
0.0
 41
1.0
 50
0.0
 71
     0
 42
0.2
  3
ARIAL.TTF
  4

1001
ACAD
1000
Arial
1071
      256
  0
STYLE
  5
6E
330
3
100
AcDbSymbolTableRecord
100
AcDbTextStyleTableRecord
  2
Text Style7
 70
     0
 40
0.0
 41
1.0
 50
0.0
 71
     0
 42
0.2
  3
ARIAL.TTF
  4

1001
ACAD
1000
Arial
1071
      256
  0
STYLE
  5
6F
330
3
100
AcDbSymbolTableRecord
100
AcDbTextStyleTableRecord
  2
Text Style8
 70
     0
 40
0.0
 41
1.0
 50
0.0
 71
     0
 42
0.2
  3
ARIAL.TTF
  4

1001
ACAD
1000
Arial
1071
      256
  0
STYLE
  5
70
330
3
100
AcDbSymbolTableRecord
100
AcDbTextStyleTableRecord
  2
Text Style9
 70
     0
 40
0.0
 41
1.0
 50
0.0
 71
     0
 42
0.2
  3
ARIAL.TTF
  4

1001
ACAD
1000
Arial
1071
      256
  0
STYLE
  5
71
330
3
100
AcDbSymbolTableRecord
100
AcDbTextStyleTableRecord
  2
Text Style10
 70
     0
 40
0.0
 41
1.0
 50
0.0
 71
     0
 42
0.2
  3
Aigdt___.ttf
  4

1001
ACAD
1000
AIGDT
1071
      514
  0
STYLE
  5
72
330
3
100
AcDbSymbolTableRecord
100
AcDbTextStyleTableRecord
  2
Text Style11
 70
     0
 40
0.0
 41
1.0
 50
0.0
 71
     0
 42
0.2
  3
ARIAL.TTF
  4

1001
ACAD
1000
Arial
1071
      256
  0
STYLE
  5
73
330
3
100
AcDbSymbolTableRecord
100
AcDbTextStyleTableRecord
  2
Text Style12
 70
     0
 40
0.0
 41
1.0
 50
0.0
 71
     0
 42
0.2
  3
ARIAL.TTF
  4

1001
ACAD
1000
Arial
1071
      256
  0
STYLE
  5
74
330
3
100
AcDbSymbolTableRecord
100
AcDbTextStyleTableRecord
  2
Text Style13
 70
     0
 40
0.0
 41
1.0
 50
0.0
 71
     0
 42
0.2
  3
Aigdt___.ttf
  4

1001
ACAD
1000
AIGDT
1071
      514
  0
STYLE
  5
75
330
3
100
AcDbSymbolTableRecord
100
AcDbTextStyleTableRecord
  2
Text Style14
 70
     0
 40
0.0
 41
1.0
 50
0.0
 71
     0
 42
0.2
  3
ARIAL.TTF
  4

1001
ACAD
1000
Arial
1071
      256
  0
STYLE
  5
76
330
3
100
AcDbSymbolTableRecord
100
AcDbTextStyleTableRecord
  2
Text Style15
 70
     0
 40
0.0
 41
1.0
 50
0.0
 71
     0
 42
0.2
  3
Aigdt___.ttf
  4

1001
ACAD
1000
AIGDT
1071
      514
  0
STYLE
  5
77
330
3
100
AcDbSymbolTableRecord
100
AcDbTextStyleTableRecord
  2
Text Style16
 70
     0
 40
0.0
 41
1.0
 50
0.0
 71
     0
 42
0.2
  3
ARIAL.TTF
  4

1001
ACAD
1000
Arial
1071
      256
  0
STYLE
  5
78
330
3
100
AcDbSymbolTableRecord
100
AcDbTextStyleTableRecord
  2
Text Style17
 70
     0
 40
0.0
 41
1.0
 50
0.0
 71
     0
 42
0.2
  3
ARIAL.TTF
  4

1001
ACAD
1000
Arial
1071
      256
  0
STYLE
  5
79
330
3
100
AcDbSymbolTableRecord
100
AcDbTextStyleTableRecord
  2
Text Style18
 70
     0
 40
0.0
 41
1.0
 50
0.0
 71
     0
 42
0.2
  3
Aigdt___.ttf
  4

1001
ACAD
1000
AIGDT
1071
      514
  0
STYLE
  5
7A
330
3
100
AcDbSymbolTableRecord
100
AcDbTextStyleTableRecord
  2
Text Style19
 70
     0
 40
0.0
 41
1.0
 50
0.0
 71
     0
 42
0.2
  3
ARIAL.TTF
  4

1001
ACAD
1000
Arial
1071
      256
  0
STYLE
  5
7B
330
3
100
AcDbSymbolTableRecord
100
AcDbTextStyleTableRecord
  2
Text Style20
 70
     0
 40
0.0
 41
1.0
 50
0.0
 71
     0
 42
0.2
  3
ARIAL.TTF
  4

1001
ACAD
1000
Arial
1071
      256
  0
STYLE
  5
7C
330
3
100
AcDbSymbolTableRecord
100
AcDbTextStyleTableRecord
  2
Text Style21
 70
     0
 40
0.0
 41
1.0
 50
0.0
 71
     0
 42
0.2
  3
Aigdt___.ttf
  4

1001
ACAD
1000
AIGDT
1071
      514
  0
STYLE
  5
7D
330
3
100
AcDbSymbolTableRecord
100
AcDbTextStyleTableRecord
  2
Text Style22
 70
     0
 40
0.0
 41
1.0
 50
0.0
 71
     0
 42
0.2
  3
ARIAL.TTF
  4

1001
ACAD
1000
Arial
1071
      256
  0
STYLE
  5
7E
330
3
100
AcDbSymbolTableRecord
100
AcDbTextStyleTableRecord
  2
Text Style23
 70
     0
 40
0.0
 41
1.0
 50
0.0
 71
     0
 42
0.2
  3
ARIAL.TTF
  4

1001
ACAD
1000
Arial
1071
      256
  0
STYLE
  5
7F
330
3
100
AcDbSymbolTableRecord
100
AcDbTextStyleTableRecord
  2
Current-ANSI
 70
     0
 40
0.0
 41
1.0
 50
0.0
 71
     0
 42
0.2
  3
ARIAL.TTF
  4

1001
ACAD
1000
Arial
1071
      256
  0
STYLE
  5
80
330
3
100
AcDbSymbolTableRecord
100
AcDbTextStyleTableRecord
  2
DEFAULT-ANSI
 70
     0
 40
0.0
 41
1.0
 50
0.0
 71
     0
 42
0.2
  3
ARIAL.TTF
  4

1001
ACAD
1000
Arial
1071
      256
  0
ENDTAB
  0
TABLE
  2
VIEW
  5
6
330
0
100
AcDbSymbolTable
 70
     0
  0
ENDTAB
  0
TABLE
  2
UCS
  5
7
330
0
100
AcDbSymbolTable
 70
     0
  0
ENDTAB
  0
TABLE
  2
APPID
  5
9
330
0
100
AcDbSymbolTable
 70
     1
  0
APPID
  5
12
330
9
100
AcDbSymbolTableRecord
100
AcDbRegAppTableRecord
  2
ACAD
 70
     0
  0
ENDTAB
  0
TABLE
  2
DIMSTYLE
  5
A
330
0
100
AcDbSymbolTable
 70
    14
100
AcDbDimStyleTable
 71
     4
340
91
340
29
340
90
340
8F
  0
DIMSTYLE
105
29
330
A
100
AcDbSymbolTableRecord
100
AcDbDimStyleTableRecord
  2
Standard
 70
     0
340
11
  0
DIMSTYLE
105
81
330
A
100
AcDbSymbolTableRecord
100
AcDbDimStyleTableRecord
  2
1 32 - FRACTION
 70
     0
 40
0.5
 41
2.5
 42
1.587499999999999
 43
5.999999999999999
 44
3.174999999999999
 45
0.00000001
 46
10.0
 73
     0
 74
     0
 78
    12
 79
     3
140
3.04800009727478
144
0.0393700787401575
147
0.8
171
     1
176
   250
177
   250
178
    18
271
     5
272
     2
277
     5
284
    12
340
11
344
82
371
    25
372
    25
  0
DIMSTYLE
105
89
330
A
100
AcDbSymbolTableRecord
100
AcDbDimStyleTableRecord
  2
1 64 - FRACTION
 70
     0
 40
0.5
 41
2.5
 42
1.587499999999999
 43
5.999999999999999
 44
3.174999999999999
 45
0.00000001
 46
10.0
 73
     0
 74
     0
 78
    12
 79
     3
140
3.04800009727478
144
0.0393700787401575
147
0.8
171
     1
176
   250
177
   250
178
    18
271
     6
272
     2
277
     5
284
    12
340
11
344
82
371
    25
372
    25
  0
DIMSTYLE
105
8A
330
A
100
AcDbSymbolTableRecord
100
AcDbDimStyleTableRecord
  2
ANSI - ALIGNED
 70
     0
 40
0.5
 41
2.5
 42
1.587499999999999
 43
5.999999999999999
 44
3.174999999999999
 45
0.00000001
 46
10.0
 73
     0
 78
     4
 79
     1
140
3.04800009727478
144
0.0393700787401575
147
0.8
171
     1
176
   250
177
   250
178
    18
271
     2
272
     2
284
     4
340
11
344
82
371
    25
372
    25
  0
DIMSTYLE
105
8B
330
A
100
AcDbSymbolTableRecord
100
AcDbDimStyleTableRecord
  2
ANSI FRACTION - ALIGNED
 70
     0
 40
0.5
 41
2.5
 42
1.587499999999999
 43
5.999999999999999
 44
3.174999999999999
 45
0.00000001
 46
10.0
 73
     0
 78
    12
 79
     3
140
3.04800009727478
144
0.0393700787401575
147
0.8
171
     1
176
   250
177
   250
178
    18
272
     2
277
     5
284
    12
340
11
344
82
371
    25
372
    25
  0
DIMSTYLE
105
8C
330
A
100
AcDbSymbolTableRecord
100
AcDbDimStyleTableRecord
  2
DEFAULT-ANSI
 70
     0
 40
0.5
 41
2.5
 42
1.587499999999999
 43
5.999999999999999
 44
3.174999999999999
 45
0.00000001
 46
10.0
140
3.04800009727478
144
0.0393700787401575
147
0.8
171
     1
176
   250
177
   250
178
    18
271
     2
272
     2
340
11
344
82
371
    25
372
    25
  0
DIMSTYLE
105
8D
330
A
100
AcDbSymbolTableRecord
100
AcDbDimStyleTableRecord
  2
DEFAULT-ANSI FRACTION
 70
     0
 40
0.5
 41
2.5
 42
1.587499999999999
 43
5.999999999999999
 44
3.174999999999999
 45
0.00000001
 46
10.0
 78
    12
 79
     3
140
3.04800009727478
144
0.0393700787401575
147
0.8
171
     1
176
   250
177
   250
178
    18
272
     2
277
     5
284
    12
340
11
344
82
371
    25
372
    25
  0
DIMSTYLE
105
8E
330
A
100
AcDbSymbolTableRecord
100
AcDbDimStyleTableRecord
  2
MM-ANSI
 70
     0
 40
0.5
 41
2.5
 42
1.587499999999999
 43
5.999999999999999
 44
3.174999999999999
 45
0.00000001
 46
10.0
 73
     0
 78
     8
 79
     2
140
3.04800009727478
143
1.0
147
1.600199999999999
171
     1
176
   250
177
   250
178
    18
179
     1
271
     2
272
     2
284
     8
340
11
344
82
371
    25
372
    25
  0
DIMSTYLE
105
8F
102
{ACAD_REACTORS
330
140
330
1DB
330
2F7
102
}
330
A
100
AcDbSymbolTableRecord
100
AcDbDimStyleTableRecord
  2
MM-ANSI-01
 70
     0
 40
0.5
 41
2.5
 42
1.587499999999999
 43
5.999999999999999
 44
3.174999999999999
 45
0.00000001
 46
10.0
 78
     8
 79
     2
140
5.0
143
1.0
146
0.6096000194549561
147
1.600199999999999
171
     1
176
   250
177
   250
178
    18
179
     1
271
     2
272
     2
284
     8
340
11
344
82
371
    25
372
    25
  0
DIMSTYLE
105
90
102
{ACAD_REACTORS
330
252
330
372
330
418
330
4B2
102
}
330
A
100
AcDbSymbolTableRecord
100
AcDbDimStyleTableRecord
  2
MM-ANSI-02
 70
     0
 40
0.5
 41
2.5
 42
1.587499999999999
 43
5.999999999999999
 44
3.174999999999999
 45
0.00000001
 46
10.0
 78
     8
 79
     2
140
5.0
143
1.0
146
0.6096000194549561
147
1.600199999999999
171
     1
176
   250
177
   250
178
    18
179
     1
271
     2
272
     2
284
     8
340
11
344
82
371
    25
372
    25
  0
DIMSTYLE
105
91
102
{ACAD_REACTORS
330
554
330
5F4
330
68E
330
728
102
}
330
A
100
AcDbSymbolTableRecord
100
AcDbDimStyleTableRecord
  2
MM-ANSI-03
 70
     0
 40
0.5
 41
2.5
 42
1.587499999999999
 43
5.999999999999999
 44
3.174999999999999
 45
0.00000001
 46
10.0
 78
     8
 79
     2
140
5.0
143
1.0
146
0.6096000194549561
147
1.600199999999999
171
     1
176
   250
177
   250
178
    18
179
     1
271
     2
272
     2
284
     8
340
11
344
82
371
    25
372
    25
  0
DIMSTYLE
105
92
330
A
100
AcDbSymbolTableRecord
100
AcDbDimStyleTableRecord
  2
X . XX mm [in]
 70
     0
  4
 in
 40
0.5
 41
2.5
 42
2.387599999999999
 43
6.349999999999999
 44
3.174999999999999
 45
0.00000001
 46
10.0
 73
     0
 74
     0
 78
     8
 79
     2
140
3.04800009727478
143
0.03937
147
1.600199999999999
170
     1
171
     3
176
   250
177
   250
178
    18
179
     1
271
     2
272
     2
284
     8
340
11
344
82
371
    25
372
    25
  0
DIMSTYLE
105
93
330
A
100
AcDbSymbolTableRecord
100
AcDbDimStyleTableRecord
  2
X . XXX
 70
     0
 40
0.5
 41
2.5
 42
2.387599999999999
 43
6.349999999999999
 44
3.174999999999999
 45
0.00000001
 46
10.0
 73
     0
 74
     0
 78
     4
 79
     1
140
3.04800009727478
144
0.0393700787401575
147
1.600199999999999
171
     1
176
   250
177
   250
178
    18
179
     1
271
     3
272
     2
284
     4
340
11
344
82
371
    25
372
    25
  0
DIMSTYLE
105
94
330
A
100
AcDbSymbolTableRecord
100
AcDbDimStyleTableRecord
  2
X . XXX in [mm]
 70
     0
  4
 mm
 40
0.5
 41
2.5
 42
2.387599999999999
 43
6.349999999999999
 44
3.174999999999999
 45
0.00000001
 46
10.0
 73
     0
 74
     0
 78
     4
 79
     1
140
3.04800009727478
144
0.0393700787401575
147
1.600199999999999
170
     1
176
   250
177
   250
178
    18
179
     1
271
     3
272
     2
284
     4
340
11
344
82
371
    25
372
    25
  0
ENDTAB
  0
TABLE
  2
BLOCK_RECORD
  5
1
330
0
100
AcDbSymbolTable
 70
    26
  0
BLOCK_RECORD
  5
21
330
1
100
AcDbSymbolTableRecord
100
AcDbBlockTableRecord
  2
*Model_Space
340
24
  0
BLOCK_RECORD
  5
1D
330
1
100
AcDbSymbolTableRecord
100
AcDbBlockTableRecord
  2
*Paper_Space
340
20
  0
BLOCK_RECORD
  5
25
330
1
100
AcDbSymbolTableRecord
100
AcDbBlockTableRecord
  2
*Paper_Space0
340
28
  0
BLOCK_RECORD
  5
82
330
1
100
AcDbSymbolTableRecord
100
AcDbBlockTableRecord
  2
_Closed
340
0
  0
BLOCK_RECORD
  5
96
330
1
100
AcDbSymbolTableRecord
100
AcDbBlockTableRecord
  2
Borders Default Border
340
0
102
{BLKREFS
331
ED
102
}
  0
BLOCK_RECORD
  5
EF
330
1
100
AcDbSymbolTableRecord
100
AcDbBlockTableRecord
  2
Title Blocks ANSI - Large
340
0
102
{BLKREFS
331
121
102
}
  0
BLOCK_RECORD
  5
142
330
1
100
AcDbSymbolTableRecord
100
AcDbBlockTableRecord
  2
*D4
340
0
  0
BLOCK_RECORD
  5
1DC
330
1
100
AcDbSymbolTableRecord
100
AcDbBlockTableRecord
  2
*D5
340
0
  0
BLOCK_RECORD
  5
253
330
1
100
AcDbSymbolTableRecord
100
AcDbBlockTableRecord
  2
*D6
340
0
  0
BLOCK_RECORD
  5
2F8
330
1
100
AcDbSymbolTableRecord
100
AcDbBlockTableRecord
  2
*D7
340
0
  0
BLOCK_RECORD
  5
373
330
1
100
AcDbSymbolTableRecord
100
AcDbBlockTableRecord
  2
*D8
340
0
  0
BLOCK_RECORD
  5
419
330
1
100
AcDbSymbolTableRecord
100
AcDbBlockTableRecord
  2
*D9
340
0
  0
BLOCK_RECORD
  5
4B3
330
1
100
AcDbSymbolTableRecord
100
AcDbBlockTableRecord
  2
*D10
340
0
  0
BLOCK_RECORD
  5
555
330
1
100
AcDbSymbolTableRecord
100
AcDbBlockTableRecord
  2
*D11
340
0
  0
BLOCK_RECORD
  5
5F5
330
1
100
AcDbSymbolTableRecord
100
AcDbBlockTableRecord
  2
*D12
340
0
  0
BLOCK_RECORD
  5
68F
330
1
100
AcDbSymbolTableRecord
100
AcDbBlockTableRecord
  2
*D13
340
0
  0
BLOCK_RECORD
  5
729
330
1
100
AcDbSymbolTableRecord
100
AcDbBlockTableRecord
  2
*D14
340
0
  0
BLOCK_RECORD
  5
7C2
330
1
100
AcDbSymbolTableRecord
100
AcDbBlockTableRecord
  2
*D15
340
0
  0
BLOCK_RECORD
  5
7CF
330
1
100
AcDbSymbolTableRecord
100
AcDbBlockTableRecord
  2
*D16
340
0
  0
BLOCK_RECORD
  5
7DA
330
1
100
AcDbSymbolTableRecord
100
AcDbBlockTableRecord
  2
*D17
340
0
  0
BLOCK_RECORD
  5
7E8
330
1
100
AcDbSymbolTableRecord
100
AcDbBlockTableRecord
  2
*D18
340
0
  0
BLOCK_RECORD
  5
7F1
330
1
100
AcDbSymbolTableRecord
100
AcDbBlockTableRecord
  2
*D19
340
0
  0
BLOCK_RECORD
  5
7FF
330
1
100
AcDbSymbolTableRecord
100
AcDbBlockTableRecord
  2
*D20
340
0
  0
BLOCK_RECORD
  5
80C
330
1
100
AcDbSymbolTableRecord
100
AcDbBlockTableRecord
  2
*D21
340
0
  0
BLOCK_RECORD
  5
819
330
1
100
AcDbSymbolTableRecord
100
AcDbBlockTableRecord
  2
*D22
340
0
  0
BLOCK_RECORD
  5
826
330
1
100
AcDbSymbolTableRecord
100
AcDbBlockTableRecord
  2
*D23
340
0
  0
BLOCK_RECORD
  5
833
330
1
100
AcDbSymbolTableRecord
100
AcDbBlockTableRecord
  2
*D24
340
0
  0
BLOCK_RECORD
  5
840
330
1
100
AcDbSymbolTableRecord
100
AcDbBlockTableRecord
  2
*D25
340
0
  0
ENDTAB
  0
ENDSEC
  0
SECTION
  2
BLOCKS
  0
BLOCK
  5
22
330
21
100
AcDbEntity
  8
0
100
AcDbBlockBegin
  2
*Model_Space
 70
     0
 10
0.0
 20
0.0
 30
0.0
  3
*Model_Space
  1

  0
ENDBLK
  5
23
330
21
100
AcDbEntity
  8
0
100
AcDbBlockEnd
  0
BLOCK
  5
1E
330
1D
100
AcDbEntity
 67
     1
  8
0
100
AcDbBlockBegin
  2
*Paper_Space
 70
     0
 10
0.0
 20
0.0
 30
0.0
  3
*Paper_Space
  1

  0
ENDBLK
  5
1F
330
1D
100
AcDbEntity
 67
     1
  8
0
100
AcDbBlockEnd
  0
BLOCK
  5
26
330
25
100
AcDbEntity
  8
0
100
AcDbBlockBegin
  2
*Paper_Space0
 70
     0
 10
0.0
 20
0.0
 30
0.0
  3
*Paper_Space0
  1

  0
ENDBLK
  5
27
330
25
100
AcDbEntity
  8
0
100
AcDbBlockEnd
  0
BLOCK
  5
87
330
82
100
AcDbEntity
  8
0
100
AcDbBlockBegin
  2
_Closed
 70
     0
 10
0.0
 20
0.0
 30
0.0
  3
_Closed
  1

  0
LINE
  5
83
330
82
100
AcDbEntity
  8
0
  6
ByBlock
 62
     0
370
    -2
100
AcDbLine
 10
-10.0
 20
1.666666666666666
 30
0.0
 11
0.0
 21
0.0
 31
0.0
  0
LINE
  5
84
330
82
100
AcDbEntity
  8
0
  6
ByBlock
 62
     0
370
    -2
100
AcDbLine
 10
0.0
 20
0.0
 30
0.0
 11
-10.0
 21
-1.666666666666666
 31
0.0
  0
LINE
  5
85
330
82
100
AcDbEntity
  8
0
  6
ByBlock
 62
     0
370
    -2
100
AcDbLine
 10
-10.0
 20
1.666666666666666
 30
0.0
 11
-10.0
 21
-1.666666666666666
 31
0.0
  0
LINE
  5
86
330
82
100
AcDbEntity
  8
0
  6
ByBlock
 62
     0
370
    -2
100
AcDbLine
 10
0.0
 20
0.0
 30
0.0
 11
-10.0
 21
0.0
 31
0.0
  0
ENDBLK
  5
88
330
82
100
AcDbEntity
  8
0
100
AcDbBlockEnd
  0
BLOCK
  5
97
330
96
100
AcDbEntity
  8
0
100
AcDbBlockBegin
  2
Borders Default Border
 70
     0
 10
0.0
 20
0.0
 30
0.0
  3
Borders Default Border
  1

  0
POLYLINE
  5
99
330
96
100
AcDbEntity
  8
2dTransBorder
  6
Continuous
370
    50
100
AcDb2dPolyline
 66
     1
 10
0.0
 20
0.0
 30
0.0
  0
VERTEX
  5
9A
330
99
100
AcDbEntity
  8
2dTransBorder
  6
Continuous
370
    50
100
AcDbVertex
100
AcDb2dVertex
 10
19.0499997138977
 20
12.69999980926513
 30
0.0
  0
VERTEX
  5
9B
330
99
100
AcDbEntity
  8
2dTransBorder
  6
Continuous
370
    50
100
AcDbVertex
100
AcDb2dVertex
 10
19.0499997138977
 20
419.099998474121
 30
0.0
  0
VERTEX
  5
9D
330
99
100
AcDbEntity
  8
2dTransBorder
  6
Continuous
370
    50
100
AcDbVertex
100
AcDb2dVertex
 10
539.7499847412109
 20
419.099998474121
 30
0.0
  0
VERTEX
  5
9E
330
99
100
AcDbEntity
  8
2dTransBorder
  6
Continuous
370
    50
100
AcDbVertex
100
AcDb2dVertex
 10
539.7499847412109
 20
12.69999980926513
 30
0.0
  0
VERTEX
  5
9F
330
99
100
AcDbEntity
  8
2dTransBorder
  6
Continuous
370
    50
100
AcDbVertex
100
AcDb2dVertex
 10
19.0499997138977
 20
12.69999980926513
 30
0.0
  0
SEQEND
  5
9C
330
99
100
AcDbEntity
  8
2dTransBorder
  6
Continuous
370
    50
  0
POLYLINE
  5
A0
330
96
100
AcDbEntity
  8
2dTransBorder
  6
Continuous
370
    50
100
AcDb2dPolyline
 66
     1
 10
0.0
 20
0.0
 30
0.0
  0
VERTEX
  5
A1
330
A0
100
AcDbEntity
  8
2dTransBorder
  6
Continuous
370
    50
100
AcDbVertex
100
AcDb2dVertex
 10
279.4000053405762
 20
6.349999904632568
 30
0.0
  0
VERTEX
  5
A2
330
A0
100
AcDbEntity
  8
2dTransBorder
  6
Continuous
370
    50
100
AcDbVertex
100
AcDb2dVertex
 10
279.4000053405762
 20
12.69999980926513
 30
0.0
  0
VERTEX
  5
A4
330
A0
100
AcDbEntity
  8
2dTransBorder
  6
Continuous
370
    50
100
AcDbVertex
100
AcDb2dVertex
 10
277.2002983093262
 20
8.889999985694885
 30
0.0
  0
VERTEX
  5
A5
330
A0
100
AcDbEntity
  8
2dTransBorder
  6
Continuous
370
    50
100
AcDbVertex
100
AcDb2dVertex
 10
281.5997123718262
 20
8.889999985694885
 30
0.0
  0
VERTEX
  5
A6
330
A0
100
AcDbEntity
  8
2dTransBorder
  6
Continuous
370
    50
100
AcDbVertex
100
AcDb2dVertex
 10
279.4000053405762
 20
12.69999980926513
 30
0.0
  0
SEQEND
  5
A3
330
A0
100
AcDbEntity
  8
2dTransBorder
  6
Continuous
370
    50
  0
POLYLINE
  5
A7
330
96
100
AcDbEntity
  8
2dTransBorder
  6
Continuous
370
    50
100
AcDb2dPolyline
 66
     1
 10
0.0
 20
0.0
 30
0.0
  0
VERTEX
  5
A8
330
A7
100
AcDbEntity
  8
2dTransBorder
  6
Continuous
370
    50
100
AcDbVertex
100
AcDb2dVertex
 10
279.4000053405762
 20
425.4499816894531
 30
0.0
  0
VERTEX
  5
A9
330
A7
100
AcDbEntity
  8
2dTransBorder
  6
Continuous
370
    50
100
AcDbVertex
100
AcDb2dVertex
 10
279.4000053405762
 20
419.099998474121
 30
0.0
  0
VERTEX
  5
AB
330
A7
100
AcDbEntity
  8
2dTransBorder
  6
Continuous
370
    50
100
AcDbVertex
100
AcDb2dVertex
 10
277.2002983093262
 20
422.9100036621093
 30
0.0
  0
VERTEX
  5
AC
330
A7
100
AcDbEntity
  8
2dTransBorder
  6
Continuous
370
    50
100
AcDbVertex
100
AcDb2dVertex
 10
281.5997123718262
 20
422.9100036621093
 30
0.0
  0
VERTEX
  5
AD
330
A7
100
AcDbEntity
  8
2dTransBorder
  6
Continuous
370
    50
100
AcDbVertex
100
AcDb2dVertex
 10
279.4000053405762
 20
419.099998474121
 30
0.0
  0
SEQEND
  5
AA
330
A7
100
AcDbEntity
  8
2dTransBorder
  6
Continuous
370
    50
  0
POLYLINE
  5
AE
330
96
100
AcDbEntity
  8
2dTransBorder
  6
Continuous
370
    50
100
AcDb2dPolyline
 66
     1
 10
0.0
 20
0.0
 30
0.0
  0
VERTEX
  5
AF
330
AE
100
AcDbEntity
  8
2dTransBorder
  6
Continuous
370
    50
100
AcDbVertex
100
AcDb2dVertex
 10
12.69999980926513
 20
215.9000015258789
 30
0.0
  0
VERTEX
  5
B0
330
AE
100
AcDbEntity
  8
2dTransBorder
  6
Continuous
370
    50
100
AcDbVertex
100
AcDb2dVertex
 10
19.0499997138977
 20
215.9000015258789
 30
0.0
  0
VERTEX
  5
B2
330
AE
100
AcDbEntity
  8
2dTransBorder
  6
Continuous
370
    50
100
AcDbVertex
100
AcDb2dVertex
 10
15.2400004863739
 20
218.0997085571289
 30
0.0
  0
VERTEX
  5
B3
330
AE
100
AcDbEntity
  8
2dTransBorder
  6
Continuous
370
    50
100
AcDbVertex
100
AcDb2dVertex
 10
15.2400004863739
 20
213.7002944946289
 30
0.0
  0
VERTEX
  5
B4
330
AE
100
AcDbEntity
  8
2dTransBorder
  6
Continuous
370
    50
100
AcDbVertex
100
AcDb2dVertex
 10
19.0499997138977
 20
215.9000015258789
 30
0.0
  0
SEQEND
  5
B1
330
AE
100
AcDbEntity
  8
2dTransBorder
  6
Continuous
370
    50
  0
POLYLINE
  5
B5
330
96
100
AcDbEntity
  8
2dTransBorder
  6
Continuous
370
    50
100
AcDb2dPolyline
 66
     1
 10
0.0
 20
0.0
 30
0.0
  0
VERTEX
  5
B6
330
B5
100
AcDbEntity
  8
2dTransBorder
  6
Continuous
370
    50
100
AcDbVertex
100
AcDb2dVertex
 10
546.1000061035156
 20
215.9000015258789
 30
0.0
  0
VERTEX
  5
B7
330
B5
100
AcDbEntity
  8
2dTransBorder
  6
Continuous
370
    50
100
AcDbVertex
100
AcDb2dVertex
 10
539.7499847412109
 20
215.9000015258789
 30
0.0
  0
VERTEX
  5
B9
330
B5
100
AcDbEntity
  8
2dTransBorder
  6
Continuous
370
    50
100
AcDbVertex
100
AcDb2dVertex
 10
543.5599899291992
 20
218.0997085571289
 30
0.0
  0
VERTEX
  5
BA
330
B5
100
AcDbEntity
  8
2dTransBorder
  6
Continuous
370
    50
100
AcDbVertex
100
AcDb2dVertex
 10
543.5599899291992
 20
213.7002944946289
 30
0.0
  0
VERTEX
  5
BB
330
B5
100
AcDbEntity
  8
2dTransBorder
  6
Continuous
370
    50
100
AcDbVertex
100
AcDb2dVertex
 10
539.7499847412109
 20
215.9000015258789
 30
0.0
  0
SEQEND
  5
B8
330
B5
100
AcDbEntity
  8
2dTransBorder
  6
Continuous
370
    50
  0
POLYLINE
  5
BC
330
96
100
AcDbEntity
  8
2dTransBorder
  6
Continuous
370
    50
100
AcDb2dPolyline
 66
     1
 10
0.0
 20
0.0
 30
0.0
  0
VERTEX
  5
BD
330
BC
100
AcDbEntity
  8
2dTransBorder
  6
Continuous
370
    50
100
AcDbVertex
100
AcDb2dVertex
 10
139.7000026702881
 20
12.69999980926513
 30
0.0
  0
VERTEX
  5
BE
330
BC
100
AcDbEntity
  8
2dTransBorder
  6
Continuous
370
    50
100
AcDbVertex
100
AcDb2dVertex
 10
139.7000026702881
 20
8.633999824523925
 30
0.0
  0
SEQEND
  5
BF
330
BC
100
AcDbEntity
  8
2dTransBorder
  6
Continuous
370
    50
  0
POLYLINE
  5
C0
330
96
100
AcDbEntity
  8
2dTransBorder
  6
Continuous
370
    50
100
AcDb2dPolyline
 66
     1
 10
0.0
 20
0.0
 30
0.0
  0
VERTEX
  5
C1
330
C0
100
AcDbEntity
  8
2dTransBorder
  6
Continuous
370
    50
100
AcDbVertex
100
AcDb2dVertex
 10
139.7000026702881
 20
419.099998474121
 30
0.0
  0
VERTEX
  5
C2
330
C0
100
AcDbEntity
  8
2dTransBorder
  6
Continuous
370
    50
100
AcDbVertex
100
AcDb2dVertex
 10
139.7000026702881
 20
423.1660079956054
 30
0.0
  0
SEQEND
  5
C3
330
C0
100
AcDbEntity
  8
2dTransBorder
  6
Continuous
370
    50
  0
POLYLINE
  5
C4
330
96
100
AcDbEntity
  8
2dTransBorder
  6
Continuous
370
    50
100
AcDb2dPolyline
 66
     1
 10
0.0
 20
0.0
 30
0.0
  0
VERTEX
  5
C5
330
C4
100
AcDbEntity
  8
2dTransBorder
  6
Continuous
370
    50
100
AcDbVertex
100
AcDb2dVertex
 10
419.099998474121
 20
12.69999980926513
 30
0.0
  0
VERTEX
  5
C6
330
C4
100
AcDbEntity
  8
2dTransBorder
  6
Continuous
370
    50
100
AcDbVertex
100
AcDb2dVertex
 10
419.099998474121
 20
8.633999824523925
 30
0.0
  0
SEQEND
  5
C7
330
C4
100
AcDbEntity
  8
2dTransBorder
  6
Continuous
370
    50
  0
POLYLINE
  5
C8
330
96
100
AcDbEntity
  8
2dTransBorder
  6
Continuous
370
    50
100
AcDb2dPolyline
 66
     1
 10
0.0
 20
0.0
 30
0.0
  0
VERTEX
  5
C9
330
C8
100
AcDbEntity
  8
2dTransBorder
  6
Continuous
370
    50
100
AcDbVertex
100
AcDb2dVertex
 10
419.099998474121
 20
419.099998474121
 30
0.0
  0
VERTEX
  5
CA
330
C8
100
AcDbEntity
  8
2dTransBorder
  6
Continuous
370
    50
100
AcDbVertex
100
AcDb2dVertex
 10
419.099998474121
 20
423.1660079956054
 30
0.0
  0
SEQEND
  5
CB
330
C8
100
AcDbEntity
  8
2dTransBorder
  6
Continuous
370
    50
  0
MTEXT
  5
CC
330
96
100
AcDbEntity
  8
2dTransBorder
  6
Continuous
370
    50
100
AcDbMText
 10
487.765567791462
 20
420.1159999999999
 30
0.0
 40
3.050000071525573
 41
0.0
 71
     7
 72
     1
  1
1
  7
Text Style12
 73
     1
 44
1.0
  0
MTEXT
  5
CE
330
96
100
AcDbEntity
  8
2dTransBorder
  6
Continuous
 62
   178
420
        3
370
    50
100
AcDbMText
 10
487.765567791462
 20
8.633999928474425
 30
0.0
 40
3.050000071525573
 41
0.0
 71
     7
 72
     1
  1
1
  7
Text Style12
 73
     1
 44
1.0
  0
MTEXT
  5
CF
330
96
100
AcDbEntity
  8
2dTransBorder
  6
Continuous
370
    50
100
AcDbMText
 10
348.065567791462
 20
420.1159999999999
 30
0.0
 40
3.050000071525573
 41
0.0
 71
     7
 72
     1
  1
2
  7
Text Style12
 73
     1
 44
1.0
  0
MTEXT
  5
D0
330
96
100
AcDbEntity
  8
2dTransBorder
  6
Continuous
 62
    18
420
   196611
370
    50
100
AcDbMText
 10
348.065567791462
 20
8.633999928474425
 30
0.0
 40
3.050000071525573
 41
0.0
 71
     7
 72
     1
  1
2
  7
Text Style12
 73
     1
 44
1.0
  0
MTEXT
  5
D1
330
96
100
AcDbEntity
  8
2dTransBorder
  6
Continuous
 62
    18
420
    65536
370
    50
100
AcDbMText
 10
208.365567791462
 20
420.1159999999999
 30
0.0
 40
3.050000071525573
 41
0.0
 71
     7
 72
     1
  1
3
  7
Text Style12
 73
     1
 44
1.0
  0
MTEXT
  5
D2
330
96
100
AcDbEntity
  8
2dTransBorder
  6
Continuous
370
    50
100
AcDbMText
 10
208.365567791462
 20
8.633999928474425
 30
0.0
 40
3.050000071525573
 41
0.0
 71
     7
 72
     1
  1
3
  7
Text Style12
 73
     1
 44
1.0
  0
MTEXT
  5
D3
330
96
100
AcDbEntity
  8
2dTransBorder
  6
Continuous
370
    50
100
AcDbMText
 10
68.665567791462
 20
420.1159999999999
 30
0.0
 40
3.050000071525573
 41
0.0
 71
     7
 72
     1
  1
4
  7
Text Style12
 73
     1
 44
1.0
  0
MTEXT
  5
D4
330
96
100
AcDbEntity
  8
2dTransBorder
  6
Continuous
370
    50
100
AcDbMText
 10
68.665567791462
 20
8.633999928474427
 30
0.0
 40
3.050000071525573
 41
0.0
 71
     7
 72
     1
  1
4
  7
Text Style12
 73
     1
 44
1.0
  0
POLYLINE
  5
D5
330
96
100
AcDbEntity
  8
2dTransBorder
  6
Continuous
370
    50
100
AcDb2dPolyline
 66
     1
 10
0.0
 20
0.0
 30
0.0
  0
VERTEX
  5
D6
330
D5
100
AcDbEntity
  8
2dTransBorder
  6
Continuous
370
    50
100
AcDbVertex
100
AcDb2dVertex
 10
19.0499997138977
 20
107.9500007629394
 30
0.0
  0
VERTEX
  5
D7
330
D5
100
AcDbEntity
  8
2dTransBorder
  6
Continuous
370
    50
100
AcDbVertex
100
AcDb2dVertex
 10
14.98399972915649
 20
107.9500007629394
 30
0.0
  0
SEQEND
  5
D8
330
D5
100
AcDbEntity
  8
2dTransBorder
  6
Continuous
370
    50
  0
POLYLINE
  5
D9
330
96
100
AcDbEntity
  8
2dTransBorder
  6
Continuous
370
    50
100
AcDb2dPolyline
 66
     1
 10
0.0
 20
0.0
 30
0.0
  0
VERTEX
  5
DA
330
D9
100
AcDbEntity
  8
2dTransBorder
  6
Continuous
370
    50
100
AcDbVertex
100
AcDb2dVertex
 10
539.7499847412109
 20
107.9500007629394
 30
0.0
  0
VERTEX
  5
DB
330
D9
100
AcDbEntity
  8
2dTransBorder
  6
Continuous
370
    50
100
AcDbVertex
100
AcDb2dVertex
 10
543.8159942626953
 20
107.9500007629394
 30
0.0
  0
SEQEND
  5
DC
330
D9
100
AcDbEntity
  8
2dTransBorder
  6
Continuous
370
    50
  0
POLYLINE
  5
DD
330
96
100
AcDbEntity
  8
2dTransBorder
  6
Continuous
370
    50
100
AcDb2dPolyline
 66
     1
 10
0.0
 20
0.0
 30
0.0
  0
VERTEX
  5
DE
330
DD
100
AcDbEntity
  8
2dTransBorder
  6
Continuous
370
    50
100
AcDbVertex
100
AcDb2dVertex
 10
19.0499997138977
 20
323.849983215332
 30
0.0
  0
VERTEX
  5
DF
330
DD
100
AcDbEntity
  8
2dTransBorder
  6
Continuous
370
    50
100
AcDbVertex
100
AcDb2dVertex
 10
14.98399972915649
 20
323.849983215332
 30
0.0
  0
SEQEND
  5
E0
330
DD
100
AcDbEntity
  8
2dTransBorder
  6
Continuous
370
    50
  0
POLYLINE
  5
E1
330
96
100
AcDbEntity
  8
2dTransBorder
  6
Continuous
370
    50
100
AcDb2dPolyline
 66
     1
 10
0.0
 20
0.0
 30
0.0
  0
VERTEX
  5
E2
330
E1
100
AcDbEntity
  8
2dTransBorder
  6
Continuous
370
    50
100
AcDbVertex
100
AcDb2dVertex
 10
539.7499847412109
 20
323.849983215332
 30
0.0
  0
VERTEX
  5
E3
330
E1
100
AcDbEntity
  8
2dTransBorder
  6
Continuous
370
    50
100
AcDbVertex
100
AcDb2dVertex
 10
543.8159942626953
 20
323.849983215332
 30
0.0
  0
SEQEND
  5
E4
330
E1
100
AcDbEntity
  8
2dTransBorder
  6
Continuous
370
    50
  0
MTEXT
  5
E5
330
96
100
AcDbEntity
  8
2dTransBorder
  6
Continuous
370
    50
100
AcDbMText
 10
15.0816371049881
 20
52.44999996423722
 30
0.0
 40
3.050000071525573
 41
0.0
 71
     7
 72
     1
  1
A
  7
Text Style12
 73
     1
 44
1.0
  0
MTEXT
  5
E6
330
96
100
AcDbEntity
  8
2dTransBorder
  6
Continuous
 62
   178
420
    65538
370
    50
100
AcDbMText
 10
540.8636371765136
 20
52.44999996423722
 30
0.0
 40
3.050000071525573
 41
0.0
 71
     7
 72
     1
  1
A
  7
Text Style12
 73
     1
 44
1.0
  0
MTEXT
  5
E7
330
96
100
AcDbEntity
  8
2dTransBorder
  6
Continuous
 62
    18
420
   196610
370
    50
100
AcDbMText
 10
15.08744885587692
 20
160.3999999642372
 30
0.0
 40
3.050000071525573
 41
0.0
 71
     7
 72
     1
  1
B
  7
Text Style12
 73
     1
 44
1.0
  0
MTEXT
  5
E8
330
96
100
AcDbEntity
  8
2dTransBorder
  6
Continuous
 62
    18
420
   131072
370
    50
100
AcDbMText
 10
540.8694489274024
 20
160.3999999642372
 30
0.0
 40
3.050000071525573
 41
0.0
 71
     7
 72
     1
  1
B
  7
Text Style12
 73
     1
 44
1.0
  0
MTEXT
  5
E9
330
96
100
AcDbEntity
  8
2dTransBorder
  6
Continuous
370
    50
100
AcDbMText
 10
14.97005169653892
 20
268.3499999642372
 30
0.0
 40
3.050000071525573
 41
0.0
 71
     7
 72
     1
  1
C
  7
Text Style12
 73
     1
 44
1.0
  0
MTEXT
  5
EA
330
96
100
AcDbEntity
  8
2dTransBorder
  6
Continuous
 62
    18
420
        0
370
    50
100
AcDbMText
 10
540.7520517680644
 20
268.3499999642372
 30
0.0
 40
3.050000071525573
 41
0.0
 71
     7
 72
     1
  1
C
  7
Text Style12
 73
     1
 44
1.0
  0
MTEXT
  5
EB
330
96
100
AcDbEntity
  8
2dTransBorder
  6
Continuous
 62
    18
420
   131072
370
    50
100
AcDbMText
 10
14.97005169653892
 20
376.2999999642372
 30
0.0
 40
3.050000071525573
 41
0.0
 71
     7
 72
     1
  1
D
  7
Text Style12
 73
     1
 44
1.0
  0
MTEXT
  5
EC
330
96
100
AcDbEntity
  8
2dTransBorder
  6
Continuous
 62
    18
420
   196608
370
    50
100
AcDbMText
 10
540.7520517680644
 20
376.2999999642372
 30
0.0
 40
3.050000071525573
 41
0.0
 71
     7
 72
     1
  1
D
  7
Text Style12
 73
     1
 44
1.0
  0
ENDBLK
  5
98
330
96
100
AcDbEntity
  8
0
100
AcDbBlockEnd
  0
BLOCK
  5
F0
330
EF
100
AcDbEntity
  8
0
100
AcDbBlockBegin
  2
Title Blocks ANSI - Large
 70
     2
 10
225.298255
 20
158.75031875
 30
0.0
  3
Title Blocks ANSI - Large
  1

  0
LINE
  5
F2
330
EF
100
AcDbEntity
  8
2dTransTitleBlock
370
    50
100
AcDbLine
 10
127.000255
 20
190.5003825
 30
0.0
 11
127.000255
 21
127.000255
 31
0.0
  0
LINE
  5
F3
330
EF
100
AcDbEntity
  8
2dTransTitleBlock
370
    50
100
AcDbLine
 10
127.000255
 20
127.000255
 30
0.0
 11
323.596255
 21
127.000255
 31
0.0
  0
LINE
  5
F4
330
EF
100
AcDbEntity
  8
2dTransTitleBlock
370
    50
100
AcDbLine
 10
323.596255
 20
127.000255
 30
0.0
 11
323.596255
 21
190.5003825
 31
0.0
  0
LINE
  5
F5
330
EF
100
AcDbEntity
  8
2dTransTitleBlock
370
    50
100
AcDbLine
 10
323.596255
 20
190.5003825
 30
0.0
 11
127.000255
 21
190.5003825
 31
0.0
  0
LINE
  5
F6
330
EF
100
AcDbEntity
  8
2dTransTitleBlock
370
    50
100
AcDbLine
 10
196.0486588236159
 20
127.000255
 30
0.0
 11
196.0486588236159
 21
190.5003825
 31
0.0
  0
LINE
  5
F7
330
EF
100
AcDbEntity
  8
2dTransTitleBlock
370
    50
100
AcDbLine
 10
196.0486588236159
 20
174.75235088
 30
0.0
 11
323.596255
 21
174.75235088
 31
0.0
  0
LINE
  5
F8
330
EF
100
AcDbEntity
  8
2dTransTitleBlock
370
    50
100
AcDbLine
 10
323.596255
 20
146.05029325
 30
0.0
 11
196.0486588236159
 21
146.05029325
 31
0.0
  0
LINE
  5
F9
330
EF
100
AcDbEntity
  8
2dTransTitleBlock
  6
Continuous
370
    50
100
AcDbLine
 10
323.596255
 20
133.3502677500001
 30
0.0
 11
196.0486588236159
 21
133.35026775
 31
0.0
  0
LINE
  5
FA
330
EF
100
AcDbEntity
  8
2dTransTitleBlock
  6
Continuous
370
    50
100
AcDbLine
 10
196.0486588236159
 20
133.35026775
 30
0.0
 11
127.000255
 21
133.35026775
 31
0.0
  0
LINE
  5
FB
330
EF
100
AcDbEntity
  8
2dTransTitleBlock
  6
Continuous
370
    50
100
AcDbLine
 10
207.2995976782074
 20
133.35026775
 30
0.0
 11
207.2995976782074
 21
146.05029325
 31
0.0
  0
LINE
  5
FC
330
EF
100
AcDbEntity
  8
2dTransTitleBlock
  6
Continuous
370
    50
100
AcDbLine
 10
225.29845237
 20
133.35026775
 30
0.0
 11
225.29845237
 21
127.000255
 31
0.0
  0
LINE
  5
FD
330
EF
100
AcDbEntity
  8
2dTransTitleBlock
  6
Continuous
370
    50
100
AcDbLine
 10
231.64846512
 20
133.35026775
 30
0.0
 11
231.64846512
 21
146.05029325
 31
0.0
  0
LINE
  5
FE
330
EF
100
AcDbEntity
  8
2dTransTitleBlock
  6
Continuous
370
    50
100
AcDbLine
 10
271.01854417
 20
133.35026775
 30
0.0
 11
271.01854417
 21
127.000255
 31
0.0
  0
LINE
  5
FF
330
EF
100
AcDbEntity
  8
2dTransTitleBlock
  6
Continuous
370
    50
100
AcDbLine
 10
307.84861812
 20
133.35026775
 30
0.0
 11
307.84861812
 21
146.05029325
 31
0.0
  0
LINE
  5
100
330
EF
100
AcDbEntity
  8
2dTransTitleBlock
  6
Continuous
370
    50
100
AcDbLine
 10
171.45034425
 20
127.000255
 30
0.0
 11
171.45034425
 21
190.5003825
 31
0.0
  0
LINE
  5
101
330
EF
100
AcDbEntity
  8
2dTransTitleBlock
  6
Continuous
370
    50
100
AcDbLine
 10
127.000255
 20
142.875286875
 30
0.0
 11
196.0486588236159
 21
142.875286875
 31
0.0
  0
LINE
  5
102
330
EF
100
AcDbEntity
  8
2dTransTitleBlock
  6
Continuous
370
    50
100
AcDbLine
 10
127.000255
 20
152.400306
 30
0.0
 11
196.0486588236159
 21
152.400306
 31
0.0
  0
LINE
  5
103
330
EF
100
AcDbEntity
  8
2dTransTitleBlock
  6
Continuous
370
    50
100
AcDbLine
 10
127.000255
 20
161.925325125
 30
0.0
 11
196.0486588236159
 21
161.925325125
 31
0.0
  0
LINE
  5
104
330
EF
100
AcDbEntity
  8
2dTransTitleBlock
  6
Continuous
370
    50
100
AcDbLine
 10
127.000255
 20
171.45034425
 30
0.0
 11
196.0486588236159
 21
171.45034425
 31
0.0
  0
LINE
  5
105
330
EF
100
AcDbEntity
  8
2dTransTitleBlock
  6
Continuous
370
    50
100
AcDbLine
 10
127.000255
 20
180.975363375
 30
0.0
 11
196.0486588236159
 21
180.975363375
 31
0.0
  0
MTEXT
  5
106
330
EF
100
AcDbEntity
  8
2dTransTitleBlock
370
     5
100
AcDbMText
 10
196.9417189601734
 20
173.9584490549892
 30
0.0
 40
2.540000081062316
 41
9.662454724311828
 71
     1
 72
     1
  1
\fArial|b0|i0;\W1.00;\H2.5400;\lTITLE
  7
Current-ANSI
 73
     2
 44
0.7831141948699952
  0
MTEXT
  5
107
330
EF
100
AcDbEntity
  8
2dTransTitleBlock
370
     5
100
AcDbMText
 10
202.0023041465527
 20
145.3246016202697
 30
0.0
 40
2.540000081062316
 41
7.889100909233093
 71
     2
 72
     1
  1
\fArial|b0|i0;\W1.00;\H2.5400;\lSIZE
  7
Current-ANSI
 73
     2
 44
0.7831141948699952
  0
MTEXT
  5
108
330
EF
100
AcDbEntity
  8
2dTransTitleBlock
370
     5
100
AcDbMText
 10
232.3602786215266
 20
145.3921472651283
 30
0.0
 40
2.540000081062316
 41
14.98251676559448
 71
     1
 72
     1
  1
\fArial|b0|i0;\W1.00;\H2.5400;\lDWG NO
  7
Current-ANSI
 73
     2
 44
0.7831141948699952
  0
MTEXT
  5
109
330
EF
100
AcDbEntity
  8
2dTransTitleBlock
370
     5
100
AcDbMText
 10
315.4580720161222
 20
145.4539351538367
 30
0.0
 40
2.540000081062316
 41
7.298628687858581
 71
     2
 72
     1
  1
\fArial|b0|i0;\W1.00;\H2.5400;\lREV
  7
Current-ANSI
 73
     2
 44
0.7831141948699952
  0
MTEXT
  5
10A
330
EF
100
AcDbEntity
  8
2dTransTitleBlock
370
     5
100
AcDbMText
 10
196.4325766810957
 20
130.3866512398336
 30
0.0
 40
2.540000081062316
 41
11.6390860080719
 71
     7
 72
     1
  1
\fArial|b0|i0;\W1.00;\H2.5400;\lSCALE
  7
Current-ANSI
 73
     2
 44
0.7831141948699952
  0
MTEXT
  5
10B
330
EF
100
AcDbEntity
  8
2dTransTitleBlock
370
     5
100
AcDbMText
 10
271.5
 20
128.0
 30
0.0
 40
2.540000081062316
 41
11.83462023735046
 71
     7
 72
     1
  1
\fArial|b0|i0;\W1.00;\H2.5400;\lSHEET
  7
Current-ANSI
 73
     2
 44
0.7831141948699952
  0
MTEXT
  5
10C
330
EF
100
AcDbEntity
  8
2dTransTitleBlock
370
     5
100
AcDbMText
 10
300.0
 20
128.0
 30
0.0
 40
2.540000081062316
 41
4.928994178771972
 71
     7
 72
     1
  1
\fArial|b0|i0;\W1.00;\H2.5400;\lOF
  7
Current-ANSI
 73
     2
 44
0.7831141948699952
  0
MTEXT
  5
10D
330
EF
100
AcDbEntity
  8
2dTransTitleBlock
370
     5
100
AcDbMText
 10
127.38162851784
 20
190.0
 30
0.0
 40
2.540000081062316
 41
13.40663194656372
 71
     1
 72
     1
  1
\fArial|b0|i0;\W1.00;\H2.5400;\lDRAWN
  7
Current-ANSI
 73
     2
 44
0.7831141948699952
  0
MTEXT
  5
10E
330
EF
100
AcDbEntity
  8
2dTransTitleBlock
370
     5
100
AcDbMText
 10
127.38162851784
 20
180.5
 30
0.0
 40
2.540000081062316
 41
17.35602259635925
 71
     1
 72
     1
  1
\fArial|b0|i0;\W1.00;\H2.5400;\lCHECKED
  7
Current-ANSI
 73
     2
 44
0.7831141948699952
  0
MTEXT
  5
10F
330
EF
100
AcDbEntity
  8
2dTransTitleBlock
370
     5
100
AcDbMText
 10
128.1416113120312
 20
170.9631371465121
 30
0.0
 40
2.540000081062316
 41
0.0
 71
     1
 72
     1
  1
\fArial|b0|i0;\W1.00;\H2.5400;\lQA
  7
Current-ANSI
 73
     2
 44
0.7831141948699952
  0
MTEXT
  5
110
330
EF
100
AcDbEntity
  8
2dTransTitleBlock
370
     5
100
AcDbMText
 10
127.7706480615607
 20
161.2396507053429
 30
0.0
 40
2.540000081062316
 41
0.0
 71
     1
 72
     1
  1
\fArial|b0|i0;\W1.00;\H2.5400;\lMFG
  7
Current-ANSI
 73
     2
 44
0.7831141948699952
  0
MTEXT
  5
111
330
EF
100
AcDbEntity
  8
2dTransTitleBlock
370
     5
100
AcDbMText
 10
127.8982296048435
 20
151.6084015690024
 30
0.0
 40
2.540000081062316
 41
0.0
 71
     1
 72
     1
  1
\fArial|b0|i0;\W1.00;\H2.5400;\lAPPROVED
  7
Current-ANSI
 73
     2
 44
0.7831141948699952
  0
ATTDEF
  5
112
330
EF
100
AcDbEntity
  8
2dTransTitleBlock
100
AcDbText
 10
197.7467733702573
 20
154.4257041150555
 30
0.0
 40
4.775199890136718
  1

  7
Current-ANSI
 11
197.7467733702573
 21
156.8133040601238
 31
0.0
100
AcDbAttributeDefinition
  3
TITLE
  2
TITLE
 70
     0
 74
     2
  0
ATTDEF
  5
113
330
EF
100
AcDbEntity
  8
2dTransTitleBlock
100
AcDbText
 10
232.9255022532487
 20
135.4175841865015
 30
0.0
 40
4.775199890136718
  1
20000B_side plate
  7
Current-ANSI
 11
232.9255022532487
 21
134.0039165519044
 31
0.0
100
AcDbAttributeDefinition
  3
PART NUMBER
  2
PART_NUMBER
 70
     0
 74
     1
  0
ATTDEF
  5
114
330
EF
100
AcDbEntity
  8
2dTransTitleBlock
100
AcDbText
 10
289.9582428122975
 20
129.0589835613308
 30
0.0
 40
3.174999952316284
  1
1 
  7
Current-ANSI
 72
     1
 11
291.8077994011639
 21
128.1190449669889
 31
0.0
100
AcDbAttributeDefinition
  3
Sheet number
  2
Sheet_number
 70
     0
 74
     1
  0
ATTDEF
  5
115
330
EF
100
AcDbEntity
  8
2dTransTitleBlock
100
AcDbText
 10
308.916898101238
 20
128.9399385943419
 30
0.0
 40
3.174999952316284
  1
1 
  7
Current-ANSI
 11
308.916898101238
 21
128.0
 31
0.0
100
AcDbAttributeDefinition
  3
Number of sheets
  2
Number_of_sheets
 70
     0
 74
     1
  0
ATTDEF
  5
116
330
EF
100
AcDbEntity
  8
2dTransTitleBlock
100
AcDbText
 10
314.4888906528935
 20
136.2145153707524
 30
0.0
 40
3.174999952316284
  1
1
  7
Current-ANSI
 72
     1
 11
315.7222893383261
 21
137.8020153469105
 31
0.0
100
AcDbAttributeDefinition
  3
REVISION NUMBER
  2
REVISION_NUMBER
 70
     0
 74
     2
  0
ATTDEF
  5
117
330
EF
100
AcDbEntity
  8
2dTransTitleBlock
100
AcDbText
 10
199.5379150959232
 20
135.1124000549316
 30
0.0
 40
4.775199890136718
  1
C
  7
Current-ANSI
 72
     1
 11
201.9466874825235
 21
137.5
 31
0.0
100
AcDbAttributeDefinition
  3
Sheet Size
  2
Sheet_Size
 70
     0
 74
     2
  0
ATTDEF
  5
118
330
EF
100
AcDbEntity
  8
2dTransTitleBlock
100
AcDbText
 10
259.8621535957465
 20
180.884717654784
 30
0.0
 40
3.174999952316284
  1

  7
Current-ANSI
 72
     1
 11
259.8621535957465
 21
182.4722176309421
 31
0.0
100
AcDbAttributeDefinition
  3
COMPANY
  2
COMPANY
 70
     0
 74
     2
  0
ATTDEF
  5
119
330
EF
100
AcDbEntity
  8
2dTransTitleBlock
100
AcDbText
 10
127.7995146045161
 20
182.7962532210504
 30
0.0
 40
3.174999952316284
  1
Chuck Warren
  7
Current-ANSI
 11
127.7995146045161
 21
181.8563146267084
 31
0.0
100
AcDbAttributeDefinition
  3
AUTHOR
  2
AUTHOR
 70
     0
 74
     1
  0
ATTDEF
  5
11A
330
EF
100
AcDbEntity
  8
2dTransTitleBlock
100
AcDbText
 10
172.0074821581669
 20
182.4261625025414
 30
0.0
 40
3.174999952316284
  1
3/14/2007
  7
Current-ANSI
 11
172.0074821581669
 21
181.4862239081995
 31
0.0
100
AcDbAttributeDefinition
  3
CREATION DATE
  2
CREATION_DATE
 70
     0
 74
     1
  0
ATTDEF
  5
11B
330
EF
100
AcDbEntity
  8
2dTransTitleBlock
100
AcDbText
 10
127.6320614557839
 20
172.7701260269904
 30
0.0
 40
3.174999952316284
  1

  7
Current-ANSI
 11
127.6320614557839
 21
171.8301874326485
 31
0.0
100
AcDbAttributeDefinition
  3
CHECKED BY
  2
CHECKED_BY
 70
     0
 74
     1
  0
ATTDEF
  5
11C
330
EF
100
AcDbEntity
  8
2dTransTitleBlock
100
AcDbText
 10
172.0074821581668
 20
173.0684228862922
 30
0.0
 40
3.174999952316284
  1

  7
Current-ANSI
 11
172.0074821581668
 21
172.1284842919503
 31
0.0
100
AcDbAttributeDefinition
  3
CHECKED DATE
  2
CHECKED_DATE
 70
     0
 74
     1
  0
ATTDEF
  5
11D
330
EF
100
AcDbEntity
  8
2dTransTitleBlock
100
AcDbText
 10
127.7649967396263
 20
144.1736090188208
 30
0.0
 40
3.174999952316284
  1

  7
Current-ANSI
 11
127.7649967396263
 21
143.2336704244789
 31
0.0
100
AcDbAttributeDefinition
  3
ENG APPROVED BY
  2
ENG_APPROVED_BY
 70
     0
 74
     1
  0
ATTDEF
  5
11E
330
EF
100
AcDbEntity
  8
2dTransTitleBlock
100
AcDbText
 10
172.0074821581669
 20
144.1594217920871
 30
0.0
 40
3.174999952316284
  1

  7
Current-ANSI
 11
172.0074821581669
 21
143.2194831977452
 31
0.0
100
AcDbAttributeDefinition
  3
ENG APPROVAL DATE
  2
ENG_APPROVAL_DATE
 70
     0
 74
     1
  0
ATTDEF
  5
11F
330
EF
100
AcDbEntity
  8
2dTransTitleBlock
100
AcDbText
 10
127.7336624243035
 20
153.7959831856672
 30
0.0
 40
3.174999952316284
  1

  7
Current-ANSI
 11
127.7336624243035
 21
152.8560445913253
 31
0.0
100
AcDbAttributeDefinition
  3
MFG APPROVED BY
  2
MFG_APPROVED_BY
 70
     0
 74
     1
  0
ATTDEF
  5
120
330
EF
100
AcDbEntity
  8
2dTransTitleBlock
100
AcDbText
 10
172.1046822379183
 20
153.7447753996264
 30
0.0
 40
3.174999952316284
  1

  7
Current-ANSI
 11
172.1046822379183
 21
152.8048368052845
 31
0.0
100
AcDbAttributeDefinition
  3
MFG APPROVED DATE
  2
MFG_APPROVED_DATE
 70
     0
 74
     1
  0
ENDBLK
  5
F1
330
EF
100
AcDbEntity
  8
0
100
AcDbBlockEnd
  0
BLOCK
  5
14D
330
142
100
AcDbEntity
  8
0
100
AcDbBlockBegin
  2
*D4
 70
     1
 10
0.0
 20
0.0
 30
0.0
  3
*D4
  1

  0
LINE
  5
1D1
330
142
100
AcDbEntity
  8
0
  6
Continuous
 62
   250
370
    25
100
AcDbLine
 10
1752.0
 20
1377.109834994055
 30
0.0
 11
1752.0
 21
1647.790781693936
 31
0.0
  0
LINE
  5
1D2
330
142
100
AcDbEntity
  8
0
  6
Continuous
 62
   250
370
    25
100
AcDbLine
 10
922.0000000000004
 20
1102.109834994055
 30
0.0
 11
922.0000000000004
 21
1647.790781693936
 31
0.0
  0
LINE
  5
1D3
330
142
100
AcDbEntity
  8
0
  6
Continuous
 62
   250
370
    25
100
AcDbLine
 10
1739.5
 20
1631.915781693937
 30
0.0
 11
1363.579003819559
 21
1631.915781693937
 31
0.0
  0
LINE
  5
1D4
330
142
100
AcDbEntity
  8
0
  6
Continuous
 62
   250
370
    25
100
AcDbLine
 10
934.5000000000004
 20
1631.915781693937
 30
0.0
 11
1311.731164801824
 21
1631.915781693937
 31
0.0
  0
SOLID
  5
1D5
330
142
100
AcDbEntity
  8
0
  6
Continuous
 62
   250
100
AcDbTrace
 10
1739.5
 20
1633.99911502727
 30
0.0
 11
1739.5
 21
1629.832448360603
 31
0.0
 12
1752.0
 22
1631.915781693937
 32
0.0
 13
1752.0
 23
1631.915781693937
 33
0.0
  0
SOLID
  5
1D6
330
142
100
AcDbEntity
  8
0
  6
Continuous
 62
   250
100
AcDbTrace
 10
934.5000000000004
 20
1633.99911502727
 30
0.0
 11
934.5000000000004
 21
1629.832448360603
 31
0.0
 12
922.0000000000004
 22
1631.915781693937
 32
0.0
 13
922.0000000000004
 23
1631.915781693937
 33
0.0
  0
MTEXT
  5
1D7
330
142
100
AcDbEntity
  8
0
  6
Continuous
 62
    18
370
    25
100
AcDbMText
 10
1337.655084310692
 20
1631.915781693937
 30
0.0
 40
25.0
 41
0.0
 71
     5
 72
     1
  1
\A1;83
  7
Text Style20
 73
     1
 44
1.0
  0
POINT
  5
1D8
330
142
100
AcDbEntity
  8
Defpoints
  6
Continuous
 62
     0
100
AcDbPoint
 10
1752.0
 20
1369.172334994055
 30
0.0
  0
POINT
  5
1D9
330
142
100
AcDbEntity
  8
Defpoints
  6
Continuous
 62
     0
100
AcDbPoint
 10
922.0000000000004
 20
1094.172334994055
 30
0.0
  0
POINT
  5
1DA
330
142
100
AcDbEntity
  8
Defpoints
  6
Continuous
 62
     0
100
AcDbPoint
 10
922.0000000000004
 20
1631.915781693937
 30
0.0
  0
ENDBLK
  5
14E
330
142
100
AcDbEntity
  8
0
100
AcDbBlockEnd
  0
BLOCK
  5
1E2
330
1DC
100
AcDbEntity
  8
0
100
AcDbBlockBegin
  2
*D5
 70
     1
 10
0.0
 20
0.0
 30
0.0
  3
*D5
  1

  0
LINE
  5
24A
330
1DC
100
AcDbEntity
  8
0
  6
Continuous
 62
   250
370
    25
100
AcDbLine
 10
1663.141203494676
 20
1294.535675034005
 30
0.0
 11
1679.961226681782
 21
1294.535675034005
 31
0.0
  0
LINE
  5
24B
330
1DC
100
AcDbEntity
  8
0
  6
Continuous
 62
   250
370
    25
100
AcDbLine
 10
1679.961226681782
 20
1294.535675034005
 30
0.0
 11
1699.914470890309
 21
1315.208479893039
 31
0.0
  0
MTEXT
  5
24C
330
1DC
100
AcDbEntity
  8
0
  6
Continuous
 62
    18
370
    25
100
AcDbMText
 10
1608.97717484529
 20
1294.535675034005
 30
0.0
 40
25.0
 41
0.0
 71
     5
 72
     1
  1
\A1;\U+220512.5
  7
Text Style20
 73
     1
 44
1.0
  0
SOLID
  5
24D
330
1DC
100
AcDbEntity
  8
0
  6
Continuous
 62
   250
100
AcDbTrace
 10
1698.415474915281
 20
1316.655300146085
 30
0.0
 11
1701.413466865338
 21
1313.761659639992
 31
0.0
 12
1708.595392408591
 22
1324.202455743208
 32
0.0
 13
1708.595392408591
 23
1324.202455743208
 33
0.0
  0
LINE
  5
24E
330
1DC
100
AcDbEntity
  8
0
  6
Continuous
 62
   250
370
    25
100
AcDbLine
 10
1751.550000000001
 20
1369.172334994055
 30
0.0
 11
1752.450000000001
 21
1369.172334994055
 31
0.0
  0
LINE
  5
24F
330
1DC
100
AcDbEntity
  8
0
  6
Continuous
 62
   250
370
    25
100
AcDbLine
 10
1752.000000000001
 20
1368.722334994055
 30
0.0
 11
1752.000000000001
 21
1369.622334994055
 31
0.0
  0
POINT
  5
250
330
1DC
100
AcDbEntity
  8
Defpoints
  6
Continuous
 62
     0
100
AcDbPoint
 10
1708.595392408591
 20
1324.202455743208
 30
0.0
  0
POINT
  5
251
330
1DC
100
AcDbEntity
  8
Defpoints
  6
Continuous
 62
     0
100
AcDbPoint
 10
1795.404607591411
 20
1414.142214244902
 30
0.0
  0
ENDBLK
  5
1E3
330
1DC
100
AcDbEntity
  8
0
100
AcDbBlockEnd
  0
BLOCK
  5
25E
330
253
100
AcDbEntity
  8
0
100
AcDbBlockBegin
  2
*D6
 70
     1
 10
0.0
 20
0.0
 30
0.0
  3
*D6
  1

  0
LINE
  5
2EC
330
253
100
AcDbEntity
  8
0
  6
Continuous
 62
   250
370
    25
100
AcDbLine
 10
914.0625000000005
 20
1044.172334994055
 30
0.0
 11
886.133618775775
 21
1044.172334994055
 31
0.0
  0
LINE
  5
2ED
330
253
100
AcDbEntity
  8
0
  6
Continuous
 62
   250
370
    25
100
AcDbLine
 10
914.0625000000005
 20
1094.172334994055
 30
0.0
 11
886.133618775775
 21
1094.172334994055
 31
0.0
  0
LINE
  5
2EE
330
253
100
AcDbEntity
  8
0
  6
Continuous
 62
   250
370
    25
100
AcDbLine
 10
902.0086187757749
 20
1081.672334994055
 30
0.0
 11
902.0086187757749
 21
1056.672334994055
 31
0.0
  0
LINE
  5
2EF
330
253
100
AcDbEntity
  8
0
  6
Continuous
 62
   250
370
    25
100
AcDbLine
 10
902.0086187757749
 20
1044.172334994055
 30
0.0
 11
902.0086187757749
 21
1001.462875318743
 31
0.0
  0
LINE
  5
2F0
330
253
100
AcDbEntity
  8
0
  6
Continuous
 62
   250
370
    25
100
AcDbLine
 10
902.0086187757749
 20
1001.462875318743
 30
0.0
 11
889.5086187757749
 21
1001.462875318743
 31
0.0
  0
SOLID
  5
2F1
330
253
100
AcDbEntity
  8
0
  6
Continuous
 62
   250
100
AcDbTrace
 10
899.9252854424417
 20
1081.672334994055
 30
0.0
 11
904.0919521091081
 21
1081.672334994055
 31
0.0
 12
902.0086187757749
 22
1094.172334994055
 32
0.0
 13
902.0086187757749
 23
1094.172334994055
 33
0.0
  0
SOLID
  5
2F2
330
253
100
AcDbEntity
  8
0
  6
Continuous
 62
   250
100
AcDbTrace
 10
899.9252854424417
 20
1056.672334994055
 30
0.0
 11
904.0919521091081
 21
1056.672334994055
 31
0.0
 12
902.0086187757749
 22
1044.172334994055
 32
0.0
 13
902.0086187757749
 23
1044.172334994055
 33
0.0
  0
MTEXT
  5
2F3
330
253
100
AcDbEntity
  8
0
  6
Continuous
 62
    18
370
    25
100
AcDbMText
 10
873.2197606584486
 20
1001.462875318743
 30
0.0
 40
25.0
 41
0.0
 71
     5
 72
     1
  1
\A1;5
  7
Text Style20
 73
     1
 44
1.0
  0
POINT
  5
2F4
330
253
100
AcDbEntity
  8
Defpoints
  6
Continuous
 62
     0
100
AcDbPoint
 10
922.0000000000004
 20
1044.172334994055
 30
0.0
  0
POINT
  5
2F5
330
253
100
AcDbEntity
  8
Defpoints
  6
Continuous
 62
     0
100
AcDbPoint
 10
922.0000000000004
 20
1094.172334994055
 30
0.0
  0
POINT
  5
2F6
330
253
100
AcDbEntity
  8
Defpoints
  6
Continuous
 62
     0
100
AcDbPoint
 10
902.0086187757749
 20
1094.172334994055
 30
0.0
  0
ENDBLK
  5
25F
330
253
100
AcDbEntity
  8
0
100
AcDbBlockEnd
  0
BLOCK
  5
2FE
330
2F8
100
AcDbEntity
  8
0
100
AcDbBlockBegin
  2
*D7
 70
     1
 10
0.0
 20
0.0
 30
0.0
  3
*D7
  1

  0
LINE
  5
36C
330
2F8
100
AcDbEntity
  8
0
  6
Continuous
 62
   250
370
    25
100
AcDbLine
 10
2004.007556951165
 20
1534.191100737945
 30
0.0
 11
1987.671221372179
 21
1534.191100737945
 31
0.0
  0
LINE
  5
36D
330
2F8
100
AcDbEntity
  8
0
  6
Continuous
 62
   250
370
    25
100
AcDbLine
 10
1987.671221372179
 20
1534.191100737945
 30
0.0
 11
1860.53764586829
 21
1445.171212810568
 31
0.0
  0
MTEXT
  5
36E
330
2F8
100
AcDbEntity
  8
0
  6
Continuous
 62
    18
370
    25
100
AcDbMText
 10
2041.749348219924
 20
1534.191100737945
 30
0.0
 40
25.0
 41
0.0
 71
     5
 72
     1
  1
\A1;R12
  7
Text Style20
 73
     1
 44
1.0
  0
SOLID
  5
36F
330
2F8
100
AcDbEntity
  8
0
  6
Continuous
 62
   250
100
AcDbTrace
 10
1859.342694959225
 20
1446.877779569503
 30
0.0
 11
1861.732596777355
 21
1443.464646051633
 31
0.0
 12
1850.298245314678
 22
1438.00150735618
 32
0.0
 13
1850.298245314678
 23
1438.00150735618
 33
0.0
  0
POINT
  5
370
330
2F8
100
AcDbEntity
  8
Defpoints
  6
Continuous
 62
     0
100
AcDbPoint
 10
1850.298245314678
 20
1438.00150735618
 30
0.0
  0
POINT
  5
371
330
2F8
100
AcDbEntity
  8
Defpoints
  6
Continuous
 62
     0
100
AcDbPoint
 10
1751.999999999998
 20
1369.172334994054
 30
0.0
  0
ENDBLK
  5
2FF
330
2F8
100
AcDbEntity
  8
0
100
AcDbBlockEnd
  0
BLOCK
  5
37E
330
373
100
AcDbEntity
  8
0
100
AcDbBlockBegin
  2
*D8
 70
     1
 10
0.0
 20
0.0
 30
0.0
  3
*D8
  1

  0
LINE
  5
40D
330
373
100
AcDbEntity
  8
0
  6
Continuous
 62
   250
370
    25
100
AcDbLine
 10
1396.754477622754
 20
1339.291446986722
 30
0.0
 11
1499.449967778942
 21
1404.511296994028
 31
0.0
  0
LINE
  5
40E
330
373
100
AcDbEntity
  8
0
  6
Continuous
 62
   250
370
    25
100
AcDbLine
 10
1371.235927227382
 20
1379.473079428908
 30
0.0
 11
1473.931417383571
 21
1444.692929436214
 31
0.0
  0
LINE
  5
40F
330
373
100
AcDbEntity
  8
0
  6
Continuous
 62
   250
370
    25
100
AcDbLine
 10
1479.347755699912
 20
1406.552545271356
 30
0.0
 11
1467.23180530211
 21
1425.630379161973
 31
0.0
  0
LINE
  5
410
330
373
100
AcDbEntity
  8
0
  6
Continuous
 62
   250
370
    25
100
AcDbLine
 10
1460.530505303325
 20
1436.182278437757
 30
0.0
 11
1442.355703120723
 21
1464.800409550065
 31
0.0
  0
LINE
  5
411
330
373
100
AcDbEntity
  8
0
  6
Continuous
 62
   250
370
    25
100
AcDbLine
 10
1442.355703120723
 20
1464.800409550065
 30
0.0
 11
1429.855703120723
 21
1464.800409550065
 31
0.0
  0
SOLID
  5
412
330
373
100
AcDbEntity
  8
0
  6
Continuous
 62
   250
100
AcDbTrace
 10
1481.106405579209
 20
1407.669428604486
 30
0.0
 11
1477.589105820615
 21
1405.435661938225
 31
0.0
 12
1486.049055698696
 22
1396.000645995571
 32
0.0
 13
1486.049055698696
 23
1396.000645995571
 33
0.0
  0
SOLID
  5
413
330
373
100
AcDbEntity
  8
0
  6
Continuous
 62
   250
100
AcDbTrace
 10
1468.990455181407
 20
1426.747262495104
 30
0.0
 11
1465.473155422812
 21
1424.513495828843
 31
0.0
 12
1460.530505303325
 22
1436.182278437757
 32
0.0
 13
1460.530505303325
 23
1436.182278437757
 33
0.0
  0
MTEXT
  5
414
330
373
100
AcDbEntity
  8
0
  6
Continuous
 62
    18
370
    25
100
AcDbMText
 10
1388.890855917449
 20
1464.800409550065
 30
0.0
 40
25.0
 41
0.0
 71
     5
 72
     1
  1
\A1;4.76
  7
Text Style20
 73
     1
 44
1.0
  0
POINT
  5
415
330
373
100
AcDbEntity
  8
Defpoints
  6
Continuous
 62
     0
100
AcDbPoint
 10
1390.054021582631
 20
1335.036121487494
 30
0.0
  0
POINT
  5
416
330
373
100
AcDbEntity
  8
Defpoints
  6
Continuous
 62
     0
100
AcDbPoint
 10
1364.53547118726
 20
1375.21775392968
 30
0.0
  0
POINT
  5
417
330
373
100
AcDbEntity
  8
Defpoints
  6
Continuous
 62
     0
100
AcDbPoint
 10
1460.530505303325
 20
1436.182278437757
 30
0.0
  0
ENDBLK
  5
37F
330
373
100
AcDbEntity
  8
0
100
AcDbBlockEnd
  0
BLOCK
  5
424
330
419
100
AcDbEntity
  8
0
100
AcDbBlockBegin
  2
*D9
 70
     1
 10
0.0
 20
0.0
 30
0.0
  3
*D9
  1

  0
LINE
  5
4A8
330
419
100
AcDbEntity
  8
0
  6
Continuous
 62
   250
370
    25
100
AcDbLine
 10
1098.856167359905
 20
1140.699265481408
 30
0.0
 11
1124.058714193687
 21
1101.015213770317
 31
0.0
  0
LINE
  5
4A9
330
419
100
AcDbEntity
  8
0
  6
Continuous
 62
   250
370
    25
100
AcDbLine
 10
1394.309347081859
 20
1328.335665447371
 30
0.0
 11
1419.511893915641
 21
1288.65161373628
 31
0.0
  0
LINE
  5
4AA
330
419
100
AcDbEntity
  8
0
  6
Continuous
 62
   250
370
    25
100
AcDbLine
 10
1126.099962471015
 20
1121.117425849347
 30
0.0
 11
1244.981293625619
 21
1196.616579461448
 31
0.0
  0
LINE
  5
4AB
330
419
100
AcDbEntity
  8
0
  6
Continuous
 62
   250
370
    25
100
AcDbLine
 10
1400.4493436414
 20
1295.351225817741
 30
0.0
 11
1296.965558291376
 21
1229.630745313174
 31
0.0
  0
SOLID
  5
4AC
330
419
100
AcDbEntity
  8
0
  6
Continuous
 62
   250
100
AcDbTrace
 10
1124.983079137884
 20
1122.876075728644
 30
0.0
 11
1127.216845804146
 21
1119.35877597005
 31
0.0
 12
1115.548063195231
 22
1114.416125850562
 32
0.0
 13
1115.548063195231
 23
1114.416125850562
 33
0.0
  0
SOLID
  5
4AD
330
419
100
AcDbEntity
  8
0
  6
Continuous
 62
   250
100
AcDbTrace
 10
1399.33246030827
 20
1297.109875697039
 30
0.0
 11
1401.566226974531
 21
1293.592575938444
 31
0.0
 12
1411.001242917184
 22
1302.052525816526
 32
0.0
 13
1411.001242917184
 23
1302.052525816526
 33
0.0
  0
MTEXT
  5
4AE
330
419
100
AcDbEntity
  8
0
  6
Continuous
 62
    18
370
    25
100
AcDbMText
 10
1270.973425958497
 20
1213.123662387311
 30
0.0
 40
25.0
 41
0.0
 71
     5
 72
     1
  1
\A1;35
  7
Text Style20
 73
     1
 44
1.0
  0
POINT
  5
4AF
330
419
100
AcDbEntity
  8
Defpoints
  6
Continuous
 62
     0
100
AcDbPoint
 10
1094.600841860677
 20
1147.399721521531
 30
0.0
  0
POINT
  5
4B0
330
419
100
AcDbEntity
  8
Defpoints
  6
Continuous
 62
     0
100
AcDbPoint
 10
1390.054021582631
 20
1335.036121487494
 30
0.0
  0
POINT
  5
4B1
330
419
100
AcDbEntity
  8
Defpoints
  6
Continuous
 62
     0
100
AcDbPoint
 10
1411.001242917184
 20
1302.052525816526
 30
0.0
  0
ENDBLK
  5
425
330
419
100
AcDbEntity
  8
0
100
AcDbBlockEnd
  0
BLOCK
  5
4BE
330
4B3
100
AcDbEntity
  8
0
100
AcDbBlockBegin
  2
*D10
 70
     1
 10
0.0
 20
0.0
 30
0.0
  3
*D10
  1

  0
LINE
  5
548
330
4B3
100
AcDbEntity
  8
0
  6
Continuous
 62
   250
370
    25
100
AcDbLine
 10
1064.826965966078
 20
1194.281810003839
 30
0.0
 11
1033.799839314103
 21
1243.137273168901
 31
0.0
  0
LINE
  5
549
330
4B3
100
AcDbEntity
  8
0
  6
Continuous
 62
   250
370
    25
100
AcDbLine
 10
917.7446745007726
 20
1100.872791034178
 30
0.0
 11
886.7175478487968
 21
1149.72825419924
 31
0.0
  0
LINE
  5
54A
330
4B3
100
AcDbEntity
  8
0
  6
Continuous
 62
   250
370
    25
100
AcDbLine
 10
1031.758591036775
 20
1223.035061089871
 30
0.0
 11
1006.056725980341
 21
1206.712321100615
 31
0.0
  0
LINE
  5
54B
330
4B3
100
AcDbEntity
  8
0
  6
Continuous
 62
   250
370
    25
100
AcDbLine
 10
905.7800981230371
 20
1143.028642117778
 30
0.0
 11
941.3336668042415
 21
1165.608001864598
 31
0.0
  0
SOLID
  5
54C
330
4B3
100
AcDbEntity
  8
0
  6
Continuous
 62
   250
100
AcDbTrace
 10
1030.641707703644
 20
1224.793710969168
 30
0.0
 11
1032.875474369906
 21
1221.276411210573
 31
0.0
 12
1042.310490312559
 22
1229.736361088655
 32
0.0
 13
1042.310490312559
 23
1229.736361088655
 33
0.0
  0
SOLID
  5
54D
330
4B3
100
AcDbEntity
  8
0
  6
Continuous
 62
   250
100
AcDbTrace
 10
904.6632147899062
 20
1144.787291997076
 30
0.0
 11
906.8969814561679
 21
1141.269992238481
 31
0.0
 12
895.2281988472533
 22
1136.327342118994
 32
0.0
 13
895.2281988472533
 23
1136.327342118994
 33
0.0
  0
MTEXT
  5
54E
330
4B3
100
AcDbEntity
  8
0
  6
Continuous
 62
    18
370
    25
100
AcDbMText
 10
973.695196392291
 20
1186.160161482606
 30
0.0
 40
25.0
 41
0.0
 71
     5
 72
     1
  1
\A1;17.42
  7
Text Style20
 73
     1
 44
1.0
  0
POINT
  5
54F
330
4B3
100
AcDbEntity
  8
Defpoints
  6
Continuous
 62
     0
100
AcDbPoint
 10
1069.082291465306
 20
1187.581353963716
 30
0.0
  0
POINT
  5
550
330
4B3
100
AcDbEntity
  8
Defpoints
  6
Continuous
 62
     0
100
AcDbPoint
 10
922.0000000000005
 20
1094.172334994055
 30
0.0
  0
POINT
  5
551
330
4B3
100
AcDbEntity
  8
Defpoints
  6
Continuous
 62
     0
100
AcDbPoint
 10
895.2281988472533
 20
1136.327342118994
 30
0.0
  0
ENDBLK
  5
4BF
330
4B3
100
AcDbEntity
  8
0
100
AcDbBlockEnd
  0
BLOCK
  5
560
330
555
100
AcDbEntity
  8
0
100
AcDbBlockBegin
  2
*D11
 70
     1
 10
0.0
 20
0.0
 30
0.0
  3
*D11
  1

  0
LINE
  5
5EA
330
555
100
AcDbEntity
  8
0
  6
Continuous
 62
   250
370
    25
100
AcDbLine
 10
1670.788575283312
 20
944.1723349940559
 30
0.0
 11
1678.726075283312
 21
944.1723349940559
 31
0.0
  0
LINE
  5
5EB
330
555
100
AcDbEntity
  8
0
  6
Continuous
 62
   250
370
    25
100
AcDbLine
 10
1329.9375
 20
1044.172334994055
 30
0.0
 11
1678.726075283312
 21
1044.172334994055
 31
0.0
  0
LINE
  5
5EC
330
555
100
AcDbEntity
  8
0
  6
Continuous
 62
   250
370
    25
100
AcDbLine
 10
1662.851075283312
 20
956.6723349940559
 30
0.0
 11
1662.851075283312
 21
982.1739339817753
 31
0.0
  0
LINE
  5
5ED
330
555
100
AcDbEntity
  8
0
  6
Continuous
 62
   250
370
    25
100
AcDbLine
 10
1662.851075283312
 20
1031.672334994055
 30
0.0
 11
1662.851075283312
 21
1023.70458336786
 31
0.0
  0
SOLID
  5
5EE
330
555
100
AcDbEntity
  8
0
  6
Continuous
 62
   250
100
AcDbTrace
 10
1660.767741949978
 20
956.6723349940559
 30
0.0
 11
1664.934408616646
 21
956.6723349940559
 31
0.0
 12
1662.851075283312
 22
944.1723349940559
 32
0.0
 13
1662.851075283312
 23
944.1723349940559
 33
0.0
  0
SOLID
  5
5EF
330
555
100
AcDbEntity
  8
0
  6
Continuous
 62
   250
100
AcDbTrace
 10
1660.767741949978
 20
1031.672334994055
 30
0.0
 11
1664.934408616646
 21
1031.672334994055
 31
0.0
 12
1662.851075283312
 22
1044.172334994055
 32
0.0
 13
1662.851075283312
 23
1044.172334994055
 33
0.0
  0
MTEXT
  5
5F0
330
555
100
AcDbEntity
  8
0
  6
Continuous
 62
    18
370
    25
100
AcDbMText
 10
1662.851075283312
 20
1002.939258674818
 30
0.0
 40
25.0
 41
0.0
 71
     5
 72
     1
  1
\A1;10
  7
Text Style20
 73
     1
 44
1.0
  0
POINT
  5
5F1
330
555
100
AcDbEntity
  8
Defpoints
  6
Continuous
 62
     0
100
AcDbPoint
 10
1662.851075283312
 20
944.1723349940559
 30
0.0
  0
POINT
  5
5F2
330
555
100
AcDbEntity
  8
Defpoints
  6
Continuous
 62
     0
100
AcDbPoint
 10
1322.0
 20
1044.172334994055
 30
0.0
  0
POINT
  5
5F3
330
555
100
AcDbEntity
  8
Defpoints
  6
Continuous
 62
     0
100
AcDbPoint
 10
1662.851075283312
 20
1044.172334994055
 30
0.0
  0
ENDBLK
  5
561
330
555
100
AcDbEntity
  8
0
100
AcDbBlockEnd
  0
BLOCK
  5
600
330
5F5
100
AcDbEntity
  8
0
100
AcDbBlockBegin
  2
*D12
 70
     1
 10
0.0
 20
0.0
 30
0.0
  3
*D12
  1

  0
LINE
  5
684
330
5F5
100
AcDbEntity
  8
0
  6
Continuous
 62
   250
370
    25
100
AcDbLine
 10
1492.0
 20
936.2348349940559
 30
0.0
 11
1492.0
 21
825.0689304154775
 31
0.0
  0
LINE
  5
685
330
5F5
100
AcDbEntity
  8
0
  6
Continuous
 62
   250
370
    25
100
AcDbLine
 10
1842.0
 20
936.2348349940559
 30
0.0
 11
1842.0
 21
825.0689304154775
 31
0.0
  0
LINE
  5
686
330
5F5
100
AcDbEntity
  8
0
  6
Continuous
 62
   250
370
    25
100
AcDbLine
 10
1504.5
 20
840.9439304154775
 30
0.0
 11
1653.701597621212
 21
840.9439304154775
 31
0.0
  0
LINE
  5
687
330
5F5
100
AcDbEntity
  8
0
  6
Continuous
 62
   250
370
    25
100
AcDbLine
 10
1829.5
 20
840.9439304154775
 30
0.0
 11
1705.685862286969
 21
840.9439304154775
 31
0.0
  0
SOLID
  5
688
330
5F5
100
AcDbEntity
  8
0
  6
Continuous
 62
   250
100
AcDbTrace
 10
1504.5
 20
843.0272637488108
 30
0.0
 11
1504.5
 21
838.8605970821442
 31
0.0
 12
1492.0
 22
840.9439304154775
 32
0.0
 13
1492.0
 23
840.9439304154775
 33
0.0
  0
SOLID
  5
689
330
5F5
100
AcDbEntity
  8
0
  6
Continuous
 62
   250
100
AcDbTrace
 10
1829.5
 20
843.0272637488108
 30
0.0
 11
1829.5
 21
838.8605970821442
 31
0.0
 12
1842.0
 22
840.9439304154775
 32
0.0
 13
1842.0
 23
840.9439304154775
 33
0.0
  0
MTEXT
  5
68A
330
5F5
100
AcDbEntity
  8
0
  6
Continuous
 62
    18
370
    25
100
AcDbMText
 10
1679.693729954091
 20
840.9439304154775
 30
0.0
 40
25.0
 41
0.0
 71
     5
 72
     1
  1
\A1;35
  7
Text Style20
 73
     1
 44
1.0
  0
POINT
  5
68B
330
5F5
100
AcDbEntity
  8
Defpoints
  6
Continuous
 62
     0
100
AcDbPoint
 10
1492.0
 20
944.1723349940559
 30
0.0
  0
POINT
  5
68C
330
5F5
100
AcDbEntity
  8
Defpoints
  6
Continuous
 62
     0
100
AcDbPoint
 10
1842.0
 20
944.1723349940559
 30
0.0
  0
POINT
  5
68D
330
5F5
100
AcDbEntity
  8
Defpoints
  6
Continuous
 62
     0
100
AcDbPoint
 10
1842.0
 20
840.9439304154775
 30
0.0
  0
ENDBLK
  5
601
330
5F5
100
AcDbEntity
  8
0
100
AcDbBlockEnd
  0
BLOCK
  5
69A
330
68F
100
AcDbEntity
  8
0
100
AcDbBlockBegin
  2
*D13
 70
     1
 10
0.0
 20
0.0
 30
0.0
  3
*D13
  1

  0
LINE
  5
71E
330
68F
100
AcDbEntity
  8
0
  6
Continuous
 62
   250
370
    25
100
AcDbLine
 10
922.0000000000004
 20
1036.234834994055
 30
0.0
 11
922.0000000000004
 21
966.4997193047998
 31
0.0
  0
LINE
  5
71F
330
68F
100
AcDbEntity
  8
0
  6
Continuous
 62
   250
370
    25
100
AcDbLine
 10
1322.0
 20
1036.234834994055
 30
0.0
 11
1322.0
 21
966.4997193047998
 31
0.0
  0
LINE
  5
720
330
68F
100
AcDbEntity
  8
0
  6
Continuous
 62
   250
370
    25
100
AcDbLine
 10
934.5000000000004
 20
982.3747193047999
 30
0.0
 11
1058.572406882859
 21
982.3747193047999
 31
0.0
  0
LINE
  5
721
330
68F
100
AcDbEntity
  8
0
  6
Continuous
 62
   250
370
    25
100
AcDbLine
 10
1309.5
 20
982.3747193047999
 30
0.0
 11
1111.307012612736
 21
982.3747193047999
 31
0.0
  0
SOLID
  5
722
330
68F
100
AcDbEntity
  8
0
  6
Continuous
 62
   250
100
AcDbTrace
 10
934.5000000000004
 20
984.4580526381333
 30
0.0
 11
934.5000000000004
 21
980.2913859714667
 31
0.0
 12
922.0000000000004
 22
982.3747193047999
 32
0.0
 13
922.0000000000004
 23
982.3747193047999
 33
0.0
  0
SOLID
  5
723
330
68F
100
AcDbEntity
  8
0
  6
Continuous
 62
   250
100
AcDbTrace
 10
1309.5
 20
984.4580526381333
 30
0.0
 11
1309.5
 21
980.2913859714667
 31
0.0
 12
1322.0
 22
982.3747193047999
 32
0.0
 13
1322.0
 23
982.3747193047999
 33
0.0
  0
MTEXT
  5
724
330
68F
100
AcDbEntity
  8
0
  6
Continuous
 62
    18
370
    25
100
AcDbMText
 10
1084.939709747797
 20
982.3747193047999
 30
0.0
 40
25.0
 41
0.0
 71
     5
 72
     1
  1
\A1;40
  7
Text Style20
 73
     1
 44
1.0
  0
POINT
  5
725
330
68F
100
AcDbEntity
  8
Defpoints
  6
Continuous
 62
     0
100
AcDbPoint
 10
922.0000000000004
 20
1044.172334994055
 30
0.0
  0
POINT
  5
726
330
68F
100
AcDbEntity
  8
Defpoints
  6
Continuous
 62
     0
100
AcDbPoint
 10
1322.0
 20
1044.172334994055
 30
0.0
  0
POINT
  5
727
330
68F
100
AcDbEntity
  8
Defpoints
  6
Continuous
 62
     0
100
AcDbPoint
 10
1322.0
 20
982.3747193047999
 30
0.0
  0
ENDBLK
  5
69B
330
68F
100
AcDbEntity
  8
0
100
AcDbBlockEnd
  0
BLOCK
  5
734
330
729
100
AcDbEntity
  8
0
100
AcDbBlockBegin
  2
*D14
 70
     1
 10
0.0
 20
0.0
 30
0.0
  3
*D14
  1

  0
LINE
  5
7B8
330
729
100
AcDbEntity
  8
0
  6
Continuous
 62
   250
370
    25
100
AcDbLine
 10
1849.9375
 20
944.1723349940559
 30
0.0
 11
2039.947226499626
 21
944.1723349940559
 31
0.0
  0
LINE
  5
7B9
330
729
100
AcDbEntity
  8
0
  6
Continuous
 62
   250
370
    25
100
AcDbLine
 10
1759.9375
 20
1369.172334994055
 30
0.0
 11
2039.947226499626
 21
1369.172334994055
 31
0.0
  0
LINE
  5
7BA
330
729
100
AcDbEntity
  8
0
  6
Continuous
 62
   250
370
    25
100
AcDbLine
 10
2024.072226499626
 20
956.6723349940559
 30
0.0
 11
2024.072226499626
 21
1168.655380793192
 31
0.0
  0
LINE
  5
7BB
330
729
100
AcDbEntity
  8
0
  6
Continuous
 62
   250
370
    25
100
AcDbLine
 10
2024.072226499626
 20
1356.672334994055
 30
0.0
 11
2024.072226499626
 21
1210.186030179277
 31
0.0
  0
SOLID
  5
7BC
330
729
100
AcDbEntity
  8
0
  6
Continuous
 62
   250
100
AcDbTrace
 10
2021.988893166292
 20
956.6723349940559
 30
0.0
 11
2026.155559832959
 21
956.6723349940559
 31
0.0
 12
2024.072226499626
 22
944.1723349940559
 32
0.0
 13
2024.072226499626
 23
944.1723349940559
 33
0.0
  0
SOLID
  5
7BD
330
729
100
AcDbEntity
  8
0
  6
Continuous
 62
   250
100
AcDbTrace
 10
2021.988893166292
 20
1356.672334994055
 30
0.0
 11
2026.155559832959
 21
1356.672334994055
 31
0.0
 12
2024.072226499626
 22
1369.172334994055
 32
0.0
 13
2024.072226499626
 23
1369.172334994055
 33
0.0
  0
MTEXT
  5
7BE
330
729
100
AcDbEntity
  8
0
  6
Continuous
 62
    18
370
    25
100
AcDbMText
 10
2024.072226499626
 20
1189.420705486235
 30
0.0
 40
25.0
 41
0.0
 71
     5
 72
     1
  1
\A1;42.5
  7
Text Style20
 73
     1
 44
1.0
  0
POINT
  5
7BF
330
729
100
AcDbEntity
  8
Defpoints
  6
Continuous
 62
     0
100
AcDbPoint
 10
1842.0
 20
944.1723349940559
 30
0.0
  0
POINT
  5
7C0
330
729
100
AcDbEntity
  8
Defpoints
  6
Continuous
 62
     0
100
AcDbPoint
 10
1752.0
 20
1369.172334994055
 30
0.0
  0
POINT
  5
7C1
330
729
100
AcDbEntity
  8
Defpoints
  6
Continuous
 62
     0
100
AcDbPoint
 10
2024.072226499626
 20
1369.172334994055
 30
0.0
  0
ENDBLK
  5
735
330
729
100
AcDbEntity
  8
0
100
AcDbBlockEnd
  0
BLOCK
  5
7CD
330
7C2
100
AcDbEntity
  8
0
100
AcDbBlockBegin
  2
*D15
 70
     1
 10
0.0
 20
0.0
 30
0.0
  3
*D15
  1

  0
LINE
  5
7C3
330
7C2
100
AcDbEntity
  8
0
  6
Continuous
 62
   250
370
    25
100
AcDbLine
 10
175.2
 20
137.7109834994055
 30
0.0
 11
175.2
 21
164.7790781693937
 31
0.0
  0
LINE
  5
7C4
330
7C2
100
AcDbEntity
  8
0
  6
Continuous
 62
   250
370
    25
100
AcDbLine
 10
92.20000000000004
 20
110.2109834994055
 30
0.0
 11
92.20000000000004
 21
164.7790781693937
 31
0.0
  0
LINE
  5
7C5
330
7C2
100
AcDbEntity
  8
0
  6
Continuous
 62
   250
370
    25
100
AcDbLine
 10
173.95
 20
163.1915781693937
 30
0.0
 11
136.3579003819559
 21
163.1915781693937
 31
0.0
  0
LINE
  5
7C6
330
7C2
100
AcDbEntity
  8
0
  6
Continuous
 62
   250
370
    25
100
AcDbLine
 10
93.45000000000004
 20
163.1915781693937
 30
0.0
 11
131.1731164801824
 21
163.1915781693937
 31
0.0
  0
SOLID
  5
7C7
330
7C2
100
AcDbEntity
  8
0
  6
Continuous
 62
   250
100
AcDbTrace
 10
173.95
 20
163.399911502727
 30
0.0
 11
173.95
 21
162.9832448360603
 31
0.0
 12
175.2
 22
163.1915781693937
 32
0.0
 13
175.2
 23
163.1915781693937
 33
0.0
  0
SOLID
  5
7C8
330
7C2
100
AcDbEntity
  8
0
  6
Continuous
 62
   250
100
AcDbTrace
 10
93.45000000000004
 20
163.399911502727
 30
0.0
 11
93.45000000000004
 21
162.9832448360603
 31
0.0
 12
92.20000000000004
 22
163.1915781693937
 32
0.0
 13
92.20000000000004
 23
163.1915781693937
 33
0.0
  0
MTEXT
  5
7C9
330
7C2
100
AcDbEntity
  8
0
  6
Continuous
 62
    18
370
    25
100
AcDbMText
 10
133.7655084310692
 20
163.1915781693937
 30
0.0
 40
2.5
 41
0.0
 71
     5
 72
     1
  1
\A1;83
  7
Text Style20
 73
     1
 44
1.0
  0
POINT
  5
7CA
330
7C2
100
AcDbEntity
  8
Defpoints
  6
Continuous
 62
     0
100
AcDbPoint
 10
175.2
 20
136.9172334994055
 30
0.0
  0
POINT
  5
7CB
330
7C2
100
AcDbEntity
  8
Defpoints
  6
Continuous
 62
     0
100
AcDbPoint
 10
92.20000000000004
 20
109.4172334994055
 30
0.0
  0
POINT
  5
7CC
330
7C2
100
AcDbEntity
  8
Defpoints
  6
Continuous
 62
     0
100
AcDbPoint
 10
92.20000000000004
 20
163.1915781693937
 30
0.0
  0
ENDBLK
  5
7CE
330
7C2
100
AcDbEntity
  8
0
100
AcDbBlockEnd
  0
BLOCK
  5
7D8
330
7CF
100
AcDbEntity
  8
0
100
AcDbBlockBegin
  2
*D16
 70
     1
 10
0.0
 20
0.0
 30
0.0
  3
*D16
  1

  0
LINE
  5
7D0
330
7CF
100
AcDbEntity
  8
0
  6
Continuous
 62
   250
370
    25
100
AcDbLine
 10
166.3141203494676
 20
129.4535675034005
 30
0.0
 11
167.9961226681782
 21
129.4535675034005
 31
0.0
  0
LINE
  5
7D1
330
7CF
100
AcDbEntity
  8
0
  6
Continuous
 62
   250
370
    25
100
AcDbLine
 10
167.9961226681782
 20
129.4535675034005
 30
0.0
 11
169.9914470890309
 21
131.5208479893038
 31
0.0
  0
MTEXT
  5
7D2
330
7CF
100
AcDbEntity
  8
0
  6
Continuous
 62
    18
370
    25
100
AcDbMText
 10
160.897717484529
 20
129.4535675034005
 30
0.0
 40
2.5
 41
0.0
 71
     5
 72
     1
  1
\A1;\U+220512.5
  7
Text Style20
 73
     1
 44
1.0
  0
SOLID
  5
7D3
330
7CF
100
AcDbEntity
  8
0
  6
Continuous
 62
   250
100
AcDbTrace
 10
169.8415474915281
 20
131.6655300146085
 30
0.0
 11
170.1413466865338
 21
131.3761659639991
 31
0.0
 12
170.8595392408591
 22
132.4202455743207
 32
0.0
 13
170.8595392408591
 23
132.4202455743207
 33
0.0
  0
LINE
  5
7D4
330
7CF
100
AcDbEntity
  8
0
  6
Continuous
 62
   250
370
    25
100
AcDbLine
 10
175.1550000000001
 20
136.9172334994054
 30
0.0
 11
175.2450000000001
 21
136.9172334994055
 31
0.0
  0
LINE
  5
7D5
330
7CF
100
AcDbEntity
  8
0
  6
Continuous
 62
   250
370
    25
100
AcDbLine
 10
175.2000000000001
 20
136.8722334994055
 30
0.0
 11
175.2000000000001
 21
136.9622334994055
 31
0.0
  0
POINT
  5
7D6
330
7CF
100
AcDbEntity
  8
Defpoints
  6
Continuous
 62
     0
100
AcDbPoint
 10
170.8595392408591
 20
132.4202455743207
 30
0.0
  0
POINT
  5
7D7
330
7CF
100
AcDbEntity
  8
Defpoints
  6
Continuous
 62
     0
100
AcDbPoint
 10
179.5404607591411
 20
141.4142214244902
 30
0.0
  0
ENDBLK
  5
7D9
330
7CF
100
AcDbEntity
  8
0
100
AcDbBlockEnd
  0
BLOCK
  5
7E6
330
7DA
100
AcDbEntity
  8
0
100
AcDbBlockBegin
  2
*D17
 70
     1
 10
0.0
 20
0.0
 30
0.0
  3
*D17
  1

  0
LINE
  5
7DB
330
7DA
100
AcDbEntity
  8
0
  6
Continuous
 62
   250
370
    25
100
AcDbLine
 10
91.40625000000005
 20
104.4172334994055
 30
0.0
 11
88.61336187757748
 21
104.4172334994055
 31
0.0
  0
LINE
  5
7DC
330
7DA
100
AcDbEntity
  8
0
  6
Continuous
 62
   250
370
    25
100
AcDbLine
 10
91.40625000000005
 20
109.4172334994055
 30
0.0
 11
88.61336187757748
 21
109.4172334994055
 31
0.0
  0
LINE
  5
7DD
330
7DA
100
AcDbEntity
  8
0
  6
Continuous
 62
   250
370
    25
100
AcDbLine
 10
90.20086187757749
 20
108.1672334994055
 30
0.0
 11
90.20086187757749
 21
105.6672334994055
 31
0.0
  0
LINE
  5
7DE
330
7DA
100
AcDbEntity
  8
0
  6
Continuous
 62
   250
370
    25
100
AcDbLine
 10
90.20086187757749
 20
104.4172334994055
 30
0.0
 11
90.20086187757749
 21
100.1462875318743
 31
0.0
  0
LINE
  5
7DF
330
7DA
100
AcDbEntity
  8
0
  6
Continuous
 62
   250
370
    25
100
AcDbLine
 10
90.20086187757749
 20
100.1462875318743
 30
0.0
 11
88.95086187757749
 21
100.1462875318743
 31
0.0
  0
SOLID
  5
7E0
330
7DA
100
AcDbEntity
  8
0
  6
Continuous
 62
   250
100
AcDbTrace
 10
89.99252854424417
 20
108.1672334994055
 30
0.0
 11
90.40919521091081
 21
108.1672334994055
 31
0.0
 12
90.20086187757749
 22
109.4172334994055
 32
0.0
 13
90.20086187757749
 23
109.4172334994055
 33
0.0
  0
SOLID
  5
7E1
330
7DA
100
AcDbEntity
  8
0
  6
Continuous
 62
   250
100
AcDbTrace
 10
89.99252854424417
 20
105.6672334994055
 30
0.0
 11
90.40919521091081
 21
105.6672334994055
 31
0.0
 12
90.20086187757749
 22
104.4172334994055
 32
0.0
 13
90.20086187757749
 23
104.4172334994055
 33
0.0
  0
MTEXT
  5
7E2
330
7DA
100
AcDbEntity
  8
0
  6
Continuous
 62
    18
370
    25
100
AcDbMText
 10
87.32197606584486
 20
100.1462875318743
 30
0.0
 40
2.5
 41
0.0
 71
     5
 72
     1
  1
\A1;5
  7
Text Style20
 73
     1
 44
1.0
  0
POINT
  5
7E3
330
7DA
100
AcDbEntity
  8
Defpoints
  6
Continuous
 62
     0
100
AcDbPoint
 10
92.20000000000004
 20
104.4172334994055
 30
0.0
  0
POINT
  5
7E4
330
7DA
100
AcDbEntity
  8
Defpoints
  6
Continuous
 62
     0
100
AcDbPoint
 10
92.20000000000004
 20
109.4172334994055
 30
0.0
  0
POINT
  5
7E5
330
7DA
100
AcDbEntity
  8
Defpoints
  6
Continuous
 62
     0
100
AcDbPoint
 10
90.20086187757749
 20
109.4172334994055
 30
0.0
  0
ENDBLK
  5
7E7
330
7DA
100
AcDbEntity
  8
0
100
AcDbBlockEnd
  0
BLOCK
  5
7EF
330
7E8
100
AcDbEntity
  8
0
100
AcDbBlockBegin
  2
*D18
 70
     1
 10
0.0
 20
0.0
 30
0.0
  3
*D18
  1

  0
LINE
  5
7E9
330
7E8
100
AcDbEntity
  8
0
  6
Continuous
 62
   250
370
    25
100
AcDbLine
 10
200.4007556951165
 20
153.4191100737945
 30
0.0
 11
198.767122137218
 21
153.4191100737945
 31
0.0
  0
LINE
  5
7EA
330
7E8
100
AcDbEntity
  8
0
  6
Continuous
 62
   250
370
    25
100
AcDbLine
 10
198.767122137218
 20
153.4191100737945
 30
0.0
 11
186.053764586829
 21
144.5171212810568
 31
0.0
  0
MTEXT
  5
7EB
330
7E8
100
AcDbEntity
  8
0
  6
Continuous
 62
    18
370
    25
100
AcDbMText
 10
204.1749348219924
 20
153.4191100737945
 30
0.0
 40
2.5
 41
0.0
 71
     5
 72
     1
  1
\A1;R12
  7
Text Style20
 73
     1
 44
1.0
  0
SOLID
  5
7EC
330
7E8
100
AcDbEntity
  8
0
  6
Continuous
 62
   250
100
AcDbTrace
 10
185.9342694959225
 20
144.6877779569503
 30
0.0
 11
186.1732596777355
 21
144.3464646051632
 31
0.0
 12
185.0298245314678
 22
143.8001507356179
 32
0.0
 13
185.0298245314678
 23
143.8001507356179
 33
0.0
  0
POINT
  5
7ED
330
7E8
100
AcDbEntity
  8
Defpoints
  6
Continuous
 62
     0
100
AcDbPoint
 10
185.0298245314678
 20
143.8001507356179
 30
0.0
  0
POINT
  5
7EE
330
7E8
100
AcDbEntity
  8
Defpoints
  6
Continuous
 62
     0
100
AcDbPoint
 10
175.1999999999998
 20
136.9172334994054
 30
0.0
  0
ENDBLK
  5
7F0
330
7E8
100
AcDbEntity
  8
0
100
AcDbBlockEnd
  0
BLOCK
  5
7FD
330
7F1
100
AcDbEntity
  8
0
100
AcDbBlockBegin
  2
*D19
 70
     1
 10
0.0
 20
0.0
 30
0.0
  3
*D19
  1

  0
LINE
  5
7F2
330
7F1
100
AcDbEntity
  8
0
  6
Continuous
 62
   250
370
    25
100
AcDbLine
 10
139.6754477622754
 20
133.9291446986722
 30
0.0
 11
149.9449967778942
 21
140.4511296994027
 31
0.0
  0
LINE
  5
7F3
330
7F1
100
AcDbEntity
  8
0
  6
Continuous
 62
   250
370
    25
100
AcDbLine
 10
137.1235927227382
 20
137.9473079428908
 30
0.0
 11
147.3931417383571
 21
144.4692929436214
 31
0.0
  0
LINE
  5
7F4
330
7F1
100
AcDbEntity
  8
0
  6
Continuous
 62
   250
370
    25
100
AcDbLine
 10
147.9347755699912
 20
140.6552545271356
 30
0.0
 11
146.723180530211
 21
142.5630379161973
 31
0.0
  0
LINE
  5
7F5
330
7F1
100
AcDbEntity
  8
0
  6
Continuous
 62
   250
370
    25
100
AcDbLine
 10
146.0530505303325
 20
143.6182278437757
 30
0.0
 11
144.2355703120723
 21
146.4800409550065
 31
0.0
  0
LINE
  5
7F6
330
7F1
100
AcDbEntity
  8
0
  6
Continuous
 62
   250
370
    25
100
AcDbLine
 10
144.2355703120723
 20
146.4800409550065
 30
0.0
 11
142.9855703120723
 21
146.4800409550065
 31
0.0
  0
SOLID
  5
7F7
330
7F1
100
AcDbEntity
  8
0
  6
Continuous
 62
   250
100
AcDbTrace
 10
148.1106405579209
 20
140.7669428604486
 30
0.0
 11
147.7589105820614
 21
140.5435661938224
 31
0.0
 12
148.6049055698696
 22
139.6000645995571
 32
0.0
 13
148.6049055698696
 23
139.6000645995571
 33
0.0
  0
SOLID
  5
7F8
330
7F1
100
AcDbEntity
  8
0
  6
Continuous
 62
   250
100
AcDbTrace
 10
146.8990455181407
 20
142.6747262495104
 30
0.0
 11
146.5473155422812
 21
142.4513495828842
 31
0.0
 12
146.0530505303325
 22
143.6182278437757
 32
0.0
 13
146.0530505303325
 23
143.6182278437757
 33
0.0
  0
MTEXT
  5
7F9
330
7F1
100
AcDbEntity
  8
0
  6
Continuous
 62
    18
370
    25
100
AcDbMText
 10
138.8890855917448
 20
146.4800409550065
 30
0.0
 40
2.5
 41
0.0
 71
     5
 72
     1
  1
\A1;4.76
  7
Text Style20
 73
     1
 44
1.0
  0
POINT
  5
7FA
330
7F1
100
AcDbEntity
  8
Defpoints
  6
Continuous
 62
     0
100
AcDbPoint
 10
139.0054021582631
 20
133.5036121487494
 30
0.0
  0
POINT
  5
7FB
330
7F1
100
AcDbEntity
  8
Defpoints
  6
Continuous
 62
     0
100
AcDbPoint
 10
136.4535471187259
 20
137.521775392968
 30
0.0
  0
POINT
  5
7FC
330
7F1
100
AcDbEntity
  8
Defpoints
  6
Continuous
 62
     0
100
AcDbPoint
 10
146.0530505303325
 20
143.6182278437757
 30
0.0
  0
ENDBLK
  5
7FE
330
7F1
100
AcDbEntity
  8
0
100
AcDbBlockEnd
  0
BLOCK
  5
80A
330
7FF
100
AcDbEntity
  8
0
100
AcDbBlockBegin
  2
*D20
 70
     1
 10
0.0
 20
0.0
 30
0.0
  3
*D20
  1

  0
LINE
  5
800
330
7FF
100
AcDbEntity
  8
0
  6
Continuous
 62
   250
370
    25
100
AcDbLine
 10
109.8856167359905
 20
114.0699265481408
 30
0.0
 11
112.4058714193687
 21
110.1015213770317
 31
0.0
  0
LINE
  5
801
330
7FF
100
AcDbEntity
  8
0
  6
Continuous
 62
   250
370
    25
100
AcDbLine
 10
139.4309347081859
 20
132.8335665447371
 30
0.0
 11
141.9511893915641
 21
128.865161373628
 31
0.0
  0
LINE
  5
802
330
7FF
100
AcDbEntity
  8
0
  6
Continuous
 62
   250
370
    25
100
AcDbLine
 10
112.6099962471015
 20
112.1117425849347
 30
0.0
 11
124.4981293625619
 21
119.6616579461448
 31
0.0
  0
LINE
  5
803
330
7FF
100
AcDbEntity
  8
0
  6
Continuous
 62
   250
370
    25
100
AcDbLine
 10
140.04493436414
 20
129.5351225817741
 30
0.0
 11
129.6965558291376
 21
122.9630745313174
 31
0.0
  0
SOLID
  5
804
330
7FF
100
AcDbEntity
  8
0
  6
Continuous
 62
   250
100
AcDbTrace
 10
112.4983079137884
 20
112.2876075728644
 30
0.0
 11
112.7216845804146
 21
111.9358775970049
 31
0.0
 12
111.5548063195231
 22
111.4416125850562
 32
0.0
 13
111.5548063195231
 23
111.4416125850562
 33
0.0
  0
SOLID
  5
805
330
7FF
100
AcDbEntity
  8
0
  6
Continuous
 62
   250
100
AcDbTrace
 10
139.9332460308269
 20
129.7109875697039
 30
0.0
 11
140.1566226974531
 21
129.3592575938444
 31
0.0
 12
141.1001242917185
 22
130.2052525816526
 32
0.0
 13
141.1001242917185
 23
130.2052525816526
 33
0.0
  0
MTEXT
  5
806
330
7FF
100
AcDbEntity
  8
0
  6
Continuous
 62
    18
370
    25
100
AcDbMText
 10
127.0973425958497
 20
121.3123662387311
 30
0.0
 40
2.5
 41
0.0
 71
     5
 72
     1
  1
\A1;35
  7
Text Style20
 73
     1
 44
1.0
  0
POINT
  5
807
330
7FF
100
AcDbEntity
  8
Defpoints
  6
Continuous
 62
     0
100
AcDbPoint
 10
109.4600841860677
 20
114.7399721521531
 30
0.0
  0
POINT
  5
808
330
7FF
100
AcDbEntity
  8
Defpoints
  6
Continuous
 62
     0
100
AcDbPoint
 10
139.0054021582631
 20
133.5036121487494
 30
0.0
  0
POINT
  5
809
330
7FF
100
AcDbEntity
  8
Defpoints
  6
Continuous
 62
     0
100
AcDbPoint
 10
141.1001242917185
 20
130.2052525816526
 30
0.0
  0
ENDBLK
  5
80B
330
7FF
100
AcDbEntity
  8
0
100
AcDbBlockEnd
  0
BLOCK
  5
817
330
80C
100
AcDbEntity
  8
0
100
AcDbBlockBegin
  2
*D21
 70
     1
 10
0.0
 20
0.0
 30
0.0
  3
*D21
  1

  0
LINE
  5
80D
330
80C
100
AcDbEntity
  8
0
  6
Continuous
 62
   250
370
    25
100
AcDbLine
 10
106.4826965966078
 20
119.4281810003839
 30
0.0
 11
103.3799839314103
 21
124.3137273168901
 31
0.0
  0
LINE
  5
80E
330
80C
100
AcDbEntity
  8
0
  6
Continuous
 62
   250
370
    25
100
AcDbLine
 10
91.77446745007726
 20
110.0872791034178
 30
0.0
 11
88.6717547848797
 21
114.972825419924
 31
0.0
  0
LINE
  5
80F
330
80C
100
AcDbEntity
  8
0
  6
Continuous
 62
   250
370
    25
100
AcDbLine
 10
103.1758591036775
 20
122.3035061089871
 30
0.0
 11
100.6056725980341
 21
120.6712321100614
 31
0.0
  0
LINE
  5
810
330
80C
100
AcDbEntity
  8
0
  6
Continuous
 62
   250
370
    25
100
AcDbLine
 10
90.57800981230371
 20
114.3028642117778
 30
0.0
 11
94.13336668042415
 21
116.5608001864598
 31
0.0
  0
SOLID
  5
811
330
80C
100
AcDbEntity
  8
0
  6
Continuous
 62
   250
100
AcDbTrace
 10
103.0641707703644
 20
122.4793710969168
 30
0.0
 11
103.2875474369906
 21
122.1276411210573
 31
0.0
 12
104.2310490312559
 22
122.9736361088655
 32
0.0
 13
104.2310490312559
 23
122.9736361088655
 33
0.0
  0
SOLID
  5
812
330
80C
100
AcDbEntity
  8
0
  6
Continuous
 62
   250
100
AcDbTrace
 10
90.46632147899064
 20
114.4787291997076
 30
0.0
 11
90.68969814561679
 21
114.1269992238481
 31
0.0
 12
89.52281988472533
 22
113.6327342118994
 32
0.0
 13
89.52281988472533
 23
113.6327342118994
 33
0.0
  0
MTEXT
  5
813
330
80C
100
AcDbEntity
  8
0
  6
Continuous
 62
    18
370
    25
100
AcDbMText
 10
97.36951963922912
 20
118.6160161482606
 30
0.0
 40
2.5
 41
0.0
 71
     5
 72
     1
  1
\A1;17.42
  7
Text Style20
 73
     1
 44
1.0
  0
POINT
  5
814
330
80C
100
AcDbEntity
  8
Defpoints
  6
Continuous
 62
     0
100
AcDbPoint
 10
106.9082291465306
 20
118.7581353963716
 30
0.0
  0
POINT
  5
815
330
80C
100
AcDbEntity
  8
Defpoints
  6
Continuous
 62
     0
100
AcDbPoint
 10
92.20000000000005
 20
109.4172334994055
 30
0.0
  0
POINT
  5
816
330
80C
100
AcDbEntity
  8
Defpoints
  6
Continuous
 62
     0
100
AcDbPoint
 10
89.52281988472533
 20
113.6327342118994
 30
0.0
  0
ENDBLK
  5
818
330
80C
100
AcDbEntity
  8
0
100
AcDbBlockEnd
  0
BLOCK
  5
824
330
819
100
AcDbEntity
  8
0
100
AcDbBlockBegin
  2
*D22
 70
     1
 10
0.0
 20
0.0
 30
0.0
  3
*D22
  1

  0
LINE
  5
81A
330
819
100
AcDbEntity
  8
0
  6
Continuous
 62
   250
370
    25
100
AcDbLine
 10
167.0788575283312
 20
94.41723349940559
 30
0.0
 11
167.8726075283312
 21
94.41723349940559
 31
0.0
  0
LINE
  5
81B
330
819
100
AcDbEntity
  8
0
  6
Continuous
 62
   250
370
    25
100
AcDbLine
 10
132.99375
 20
104.4172334994055
 30
0.0
 11
167.8726075283312
 21
104.4172334994055
 31
0.0
  0
LINE
  5
81C
330
819
100
AcDbEntity
  8
0
  6
Continuous
 62
   250
370
    25
100
AcDbLine
 10
166.2851075283312
 20
95.66723349940559
 30
0.0
 11
166.2851075283312
 21
98.21739339817753
 31
0.0
  0
LINE
  5
81D
330
819
100
AcDbEntity
  8
0
  6
Continuous
 62
   250
370
    25
100
AcDbLine
 10
166.2851075283312
 20
103.1672334994055
 30
0.0
 11
166.2851075283312
 21
102.370458336786
 31
0.0
  0
SOLID
  5
81E
330
819
100
AcDbEntity
  8
0
  6
Continuous
 62
   250
100
AcDbTrace
 10
166.0767741949979
 20
95.66723349940559
 30
0.0
 11
166.4934408616645
 21
95.66723349940559
 31
0.0
 12
166.2851075283312
 22
94.41723349940559
 32
0.0
 13
166.2851075283312
 23
94.41723349940559
 33
0.0
  0
SOLID
  5
81F
330
819
100
AcDbEntity
  8
0
  6
Continuous
 62
   250
100
AcDbTrace
 10
166.0767741949979
 20
103.1672334994055
 30
0.0
 11
166.4934408616645
 21
103.1672334994055
 31
0.0
 12
166.2851075283312
 22
104.4172334994055
 32
0.0
 13
166.2851075283312
 23
104.4172334994055
 33
0.0
  0
MTEXT
  5
820
330
819
100
AcDbEntity
  8
0
  6
Continuous
 62
    18
370
    25
100
AcDbMText
 10
166.2851075283312
 20
100.2939258674818
 30
0.0
 40
2.5
 41
0.0
 71
     5
 72
     1
  1
\A1;10
  7
Text Style20
 73
     1
 44
1.0
  0
POINT
  5
821
330
819
100
AcDbEntity
  8
Defpoints
  6
Continuous
 62
     0
100
AcDbPoint
 10
166.2851075283312
 20
94.41723349940559
 30
0.0
  0
POINT
  5
822
330
819
100
AcDbEntity
  8
Defpoints
  6
Continuous
 62
     0
100
AcDbPoint
 10
132.2
 20
104.4172334994055
 30
0.0
  0
POINT
  5
823
330
819
100
AcDbEntity
  8
Defpoints
  6
Continuous
 62
     0
100
AcDbPoint
 10
166.2851075283312
 20
104.4172334994055
 30
0.0
  0
ENDBLK
  5
825
330
819
100
AcDbEntity
  8
0
100
AcDbBlockEnd
  0
BLOCK
  5
831
330
826
100
AcDbEntity
  8
0
100
AcDbBlockBegin
  2
*D23
 70
     1
 10
0.0
 20
0.0
 30
0.0
  3
*D23
  1

  0
LINE
  5
827
330
826
100
AcDbEntity
  8
0
  6
Continuous
 62
   250
370
    25
100
AcDbLine
 10
149.2
 20
93.62348349940559
 30
0.0
 11
149.2
 21
82.50689304154775
 31
0.0
  0
LINE
  5
828
330
826
100
AcDbEntity
  8
0
  6
Continuous
 62
   250
370
    25
100
AcDbLine
 10
184.2
 20
93.62348349940559
 30
0.0
 11
184.2
 21
82.50689304154775
 31
0.0
  0
LINE
  5
829
330
826
100
AcDbEntity
  8
0
  6
Continuous
 62
   250
370
    25
100
AcDbLine
 10
150.45
 20
84.09439304154776
 30
0.0
 11
165.3701597621212
 21
84.09439304154776
 31
0.0
  0
LINE
  5
82A
330
826
100
AcDbEntity
  8
0
  6
Continuous
 62
   250
370
    25
100
AcDbLine
 10
182.95
 20
84.09439304154776
 30
0.0
 11
170.5685862286969
 21
84.09439304154776
 31
0.0
  0
SOLID
  5
82B
330
826
100
AcDbEntity
  8
0
  6
Continuous
 62
   250
100
AcDbTrace
 10
150.45
 20
84.30272637488108
 30
0.0
 11
150.45
 21
83.88605970821442
 31
0.0
 12
149.2
 22
84.09439304154776
 32
0.0
 13
149.2
 23
84.09439304154776
 33
0.0
  0
SOLID
  5
82C
330
826
100
AcDbEntity
  8
0
  6
Continuous
 62
   250
100
AcDbTrace
 10
182.95
 20
84.30272637488108
 30
0.0
 11
182.95
 21
83.88605970821442
 31
0.0
 12
184.2
 22
84.09439304154776
 32
0.0
 13
184.2
 23
84.09439304154776
 33
0.0
  0
MTEXT
  5
82D
330
826
100
AcDbEntity
  8
0
  6
Continuous
 62
    18
370
    25
100
AcDbMText
 10
167.9693729954091
 20
84.09439304154776
 30
0.0
 40
2.5
 41
0.0
 71
     5
 72
     1
  1
\A1;35
  7
Text Style20
 73
     1
 44
1.0
  0
POINT
  5
82E
330
826
100
AcDbEntity
  8
Defpoints
  6
Continuous
 62
     0
100
AcDbPoint
 10
149.2
 20
94.41723349940559
 30
0.0
  0
POINT
  5
82F
330
826
100
AcDbEntity
  8
Defpoints
  6
Continuous
 62
     0
100
AcDbPoint
 10
184.2
 20
94.41723349940559
 30
0.0
  0
POINT
  5
830
330
826
100
AcDbEntity
  8
Defpoints
  6
Continuous
 62
     0
100
AcDbPoint
 10
184.2
 20
84.09439304154776
 30
0.0
  0
ENDBLK
  5
832
330
826
100
AcDbEntity
  8
0
100
AcDbBlockEnd
  0
BLOCK
  5
83E
330
833
100
AcDbEntity
  8
0
100
AcDbBlockBegin
  2
*D24
 70
     1
 10
0.0
 20
0.0
 30
0.0
  3
*D24
  1

  0
LINE
  5
834
330
833
100
AcDbEntity
  8
0
  6
Continuous
 62
   250
370
    25
100
AcDbLine
 10
92.20000000000004
 20
103.6234834994055
 30
0.0
 11
92.20000000000004
 21
96.64997193048
 31
0.0
  0
LINE
  5
835
330
833
100
AcDbEntity
  8
0
  6
Continuous
 62
   250
370
    25
100
AcDbLine
 10
132.2
 20
103.6234834994055
 30
0.0
 11
132.2
 21
96.64997193048
 31
0.0
  0
LINE
  5
836
330
833
100
AcDbEntity
  8
0
  6
Continuous
 62
   250
370
    25
100
AcDbLine
 10
93.45000000000004
 20
98.23747193047999
 30
0.0
 11
105.8572406882859
 21
98.23747193047999
 31
0.0
  0
LINE
  5
837
330
833
100
AcDbEntity
  8
0
  6
Continuous
 62
   250
370
    25
100
AcDbLine
 10
130.95
 20
98.23747193047999
 30
0.0
 11
111.1307012612736
 21
98.23747193047999
 31
0.0
  0
SOLID
  5
838
330
833
100
AcDbEntity
  8
0
  6
Continuous
 62
   250
100
AcDbTrace
 10
93.45000000000004
 20
98.44580526381333
 30
0.0
 11
93.45000000000004
 21
98.02913859714667
 31
0.0
 12
92.20000000000004
 22
98.23747193047999
 32
0.0
 13
92.20000000000004
 23
98.23747193047999
 33
0.0
  0
SOLID
  5
839
330
833
100
AcDbEntity
  8
0
  6
Continuous
 62
   250
100
AcDbTrace
 10
130.95
 20
98.44580526381333
 30
0.0
 11
130.95
 21
98.02913859714667
 31
0.0
 12
132.2
 22
98.23747193047999
 32
0.0
 13
132.2
 23
98.23747193047999
 33
0.0
  0
MTEXT
  5
83A
330
833
100
AcDbEntity
  8
0
  6
Continuous
 62
    18
370
    25
100
AcDbMText
 10
108.4939709747797
 20
98.23747193047999
 30
0.0
 40
2.5
 41
0.0
 71
     5
 72
     1
  1
\A1;40
  7
Text Style20
 73
     1
 44
1.0
  0
POINT
  5
83B
330
833
100
AcDbEntity
  8
Defpoints
  6
Continuous
 62
     0
100
AcDbPoint
 10
92.20000000000004
 20
104.4172334994055
 30
0.0
  0
POINT
  5
83C
330
833
100
AcDbEntity
  8
Defpoints
  6
Continuous
 62
     0
100
AcDbPoint
 10
132.2
 20
104.4172334994055
 30
0.0
  0
POINT
  5
83D
330
833
100
AcDbEntity
  8
Defpoints
  6
Continuous
 62
     0
100
AcDbPoint
 10
132.2
 20
98.23747193047999
 30
0.0
  0
ENDBLK
  5
83F
330
833
100
AcDbEntity
  8
0
100
AcDbBlockEnd
  0
BLOCK
  5
84B
330
840
100
AcDbEntity
  8
0
100
AcDbBlockBegin
  2
*D25
 70
     1
 10
0.0
 20
0.0
 30
0.0
  3
*D25
  1

  0
LINE
  5
841
330
840
100
AcDbEntity
  8
0
  6
Continuous
 62
   250
370
    25
100
AcDbLine
 10
184.99375
 20
94.41723349940559
 30
0.0
 11
203.9947226499626
 21
94.41723349940559
 31
0.0
  0
LINE
  5
842
330
840
100
AcDbEntity
  8
0
  6
Continuous
 62
   250
370
    25
100
AcDbLine
 10
175.99375
 20
136.9172334994055
 30
0.0
 11
203.9947226499626
 21
136.9172334994055
 31
0.0
  0
LINE
  5
843
330
840
100
AcDbEntity
  8
0
  6
Continuous
 62
   250
370
    25
100
AcDbLine
 10
202.4072226499626
 20
95.66723349940559
 30
0.0
 11
202.4072226499626
 21
116.8655380793192
 31
0.0
  0
LINE
  5
844
330
840
100
AcDbEntity
  8
0
  6
Continuous
 62
   250
370
    25
100
AcDbLine
 10
202.4072226499626
 20
135.6672334994055
 30
0.0
 11
202.4072226499626
 21
121.0186030179277
 31
0.0
  0
SOLID
  5
845
330
840
100
AcDbEntity
  8
0
  6
Continuous
 62
   250
100
AcDbTrace
 10
202.1988893166292
 20
95.66723349940559
 30
0.0
 11
202.6155559832959
 21
95.66723349940559
 31
0.0
 12
202.4072226499626
 22
94.41723349940559
 32
0.0
 13
202.4072226499626
 23
94.41723349940559
 33
0.0
  0
SOLID
  5
846
330
840
100
AcDbEntity
  8
0
  6
Continuous
 62
   250
100
AcDbTrace
 10
202.1988893166292
 20
135.6672334994055
 30
0.0
 11
202.6155559832959
 21
135.6672334994055
 31
0.0
 12
202.4072226499626
 22
136.9172334994055
 32
0.0
 13
202.4072226499626
 23
136.9172334994055
 33
0.0
  0
MTEXT
  5
847
330
840
100
AcDbEntity
  8
0
  6
Continuous
 62
    18
370
    25
100
AcDbMText
 10
202.4072226499626
 20
118.9420705486235
 30
0.0
 40
2.5
 41
0.0
 71
     5
 72
     1
  1
\A1;42.5
  7
Text Style20
 73
     1
 44
1.0
  0
POINT
  5
848
330
840
100
AcDbEntity
  8
Defpoints
  6
Continuous
 62
     0
100
AcDbPoint
 10
184.2
 20
94.41723349940559
 30
0.0
  0
POINT
  5
849
330
840
100
AcDbEntity
  8
Defpoints
  6
Continuous
 62
     0
100
AcDbPoint
 10
175.2
 20
136.9172334994055
 30
0.0
  0
POINT
  5
84A
330
840
100
AcDbEntity
  8
Defpoints
  6
Continuous
 62
     0
100
AcDbPoint
 10
202.4072226499626
 20
136.9172334994055
 30
0.0
  0
ENDBLK
  5
84C
330
840
100
AcDbEntity
  8
0
100
AcDbBlockEnd
  0
ENDSEC
  0
SECTION
  2
ENTITIES
  0
INSERT
  5
ED
330
21
100
AcDbEntity
  8
2dTransBorder
100
AcDbBlockReference
  2
Borders Default Border
 10
0.0
 20
0.0
 30
0.0
 41
0.5
 42
0.5
 43
0.5
  0
INSERT
  5
121
330
21
100
AcDbEntity
  8
2dTransTitleBlock
100
AcDbBlockReference
 66
     1
  2
Title Blocks ANSI - Large
 10
220.726
 20
22.22503187500002
 30
0.0
 41
0.5
 42
0.5
 43
0.5
  0
ATTRIB
  5
123
330
121
100
AcDbEntity
  8
2dTransTitleBlock
100
AcDbText
 10
206.9502591851287
 20
20.06272455752773
 30
0.0
 40
2.387599945068359
  1

  7
Current-ANSI
 11
206.9502591851287
 21
21.25652453006191
 31
0.0
100
AcDbAttribute
  2
TITLE
 70
     0
 74
     2
  0
ATTRIB
  5
124
330
121
100
AcDbEntity
  8
2dTransTitleBlock
100
AcDbText
 10
224.5396236266244
 20
10.55866459325074
 30
0.0
 40
2.387599945068359
  1
20000B_side plate
  7
Current-ANSI
 11
224.5396236266244
 21
9.851830775952201
 31
0.0
100
AcDbAttribute
  2
PART_NUMBER
 70
     0
 74
     1
  0
ATTRIB
  5
125
330
121
100
AcDbEntity
  8
2dTransTitleBlock
100
AcDbText
 10
253.0559939061487
 20
7.379364280665436
 30
0.0
 40
1.587499976158142
  1
1 
  7
Current-ANSI
 72
     1
 11
253.9807722005819
 21
6.909394983494472
 31
0.0
100
AcDbAttribute
  2
Sheet_number
 70
     0
 74
     1
  0
ATTRIB
  5
126
330
121
100
AcDbEntity
  8
2dTransTitleBlock
100
AcDbText
 10
262.535321550619
 20
7.319841797170953
 30
0.0
 40
1.587499976158142
  1
1 
  7
Current-ANSI
 11
262.535321550619
 21
6.849872499999989
 31
0.0
100
AcDbAttribute
  2
Number_of_sheets
 70
     0
 74
     1
  0
ATTRIB
  5
127
330
121
100
AcDbEntity
  8
2dTransTitleBlock
100
AcDbText
 10
265.3213178264467
 20
10.95713018537621
 30
0.0
 40
1.587499976158142
  1
1
  7
Current-ANSI
 72
     1
 11
265.938017169163
 21
11.75088017345528
 31
0.0
100
AcDbAttribute
  2
REVISION_NUMBER
 70
     0
 74
     2
  0
ATTRIB
  5
128
330
121
100
AcDbEntity
  8
2dTransTitleBlock
100
AcDbText
 10
207.8458300479616
 20
10.40607252746582
 30
0.0
 40
2.387599945068359
  1
C
  7
Current-ANSI
 72
     1
 11
209.0502162412618
 21
11.5998725
 31
0.0
100
AcDbAttribute
  2
Sheet_Size
 70
     0
 74
     2
  0
ATTRIB
  5
129
330
121
100
AcDbEntity
  8
2dTransTitleBlock
100
AcDbText
 10
238.0079492978732
 20
33.29223132739202
 30
0.0
 40
1.587499976158142
  1

  7
Current-ANSI
 72
     1
 11
238.0079492978732
 21
34.08598131547109
 31
0.0
100
AcDbAttribute
  2
COMPANY
 70
     0
 74
     2
  0
ATTRIB
  5
12A
330
121
100
AcDbEntity
  8
2dTransTitleBlock
100
AcDbText
 10
171.976629802258
 20
34.24799911052521
 30
0.0
 40
1.587499976158142
  1
Chuck Warren
  7
Current-ANSI
 11
171.976629802258
 21
33.77802981335424
 31
0.0
100
AcDbAttribute
  2
AUTHOR
 70
     0
 74
     1
  0
ATTRIB
  5
12B
330
121
100
AcDbEntity
  8
2dTransTitleBlock
100
AcDbText
 10
194.0806135790834
 20
34.06295375127073
 30
0.0
 40
1.587499976158142
  1
3/14/2007
  7
Current-ANSI
 11
194.0806135790834
 21
33.59298445409976
 31
0.0
100
AcDbAttribute
  2
CREATION_DATE
 70
     0
 74
     1
  0
ATTRIB
  5
12C
330
121
100
AcDbEntity
  8
2dTransTitleBlock
100
AcDbText
 10
171.8929032278919
 20
29.2349355134952
 30
0.0
 40
1.587499976158142
  1

  7
Current-ANSI
 11
171.8929032278919
 21
28.76496621632423
 31
0.0
100
AcDbAttribute
  2
CHECKED_BY
 70
     0
 74
     1
  0
ATTRIB
  5
12D
330
121
100
AcDbEntity
  8
2dTransTitleBlock
100
AcDbText
 10
194.0806135790834
 20
29.38408394314614
 30
0.0
 40
1.587499976158142
  1

  7
Current-ANSI
 11
194.0806135790834
 21
28.91411464597517
 31
0.0
100
AcDbAttribute
  2
CHECKED_DATE
 70
     0
 74
     1
  0
ATTRIB
  5
12E
330
121
100
AcDbEntity
  8
2dTransTitleBlock
100
AcDbText
 10
171.9593708698131
 20
14.93667700941042
 30
0.0
 40
1.587499976158142
  1

  7
Current-ANSI
 11
171.9593708698131
 21
14.46670771223946
 31
0.0
100
AcDbAttribute
  2
ENG_APPROVED_BY
 70
     0
 74
     1
  0
ATTRIB
  5
12F
330
121
100
AcDbEntity
  8
2dTransTitleBlock
100
AcDbText
 10
194.0806135790834
 20
14.92958339604357
 30
0.0
 40
1.587499976158142
  1

  7
Current-ANSI
 11
194.0806135790834
 21
14.4596140988726
 31
0.0
100
AcDbAttribute
  2
ENG_APPROVAL_DATE
 70
     0
 74
     1
  0
ATTRIB
  5
130
330
121
100
AcDbEntity
  8
2dTransTitleBlock
100
AcDbText
 10
171.9437037121517
 20
19.74786409283363
 30
0.0
 40
1.587499976158142
  1

  7
Current-ANSI
 11
171.9437037121517
 21
19.27789479566266
 31
0.0
100
AcDbAttribute
  2
MFG_APPROVED_BY
 70
     0
 74
     1
  0
ATTRIB
  5
131
330
121
100
AcDbEntity
  8
2dTransTitleBlock
100
AcDbText
 10
194.1292136189592
 20
19.72226019981321
 30
0.0
 40
1.587499976158142
  1

  7
Current-ANSI
 11
194.1292136189592
 21
19.25229090264224
 31
0.0
100
AcDbAttribute
  2
MFG_APPROVED_DATE
 70
     0
 74
     1
  0
SEQEND
  5
122
330
121
100
AcDbEntity
  8
2dTransTitleBlock
  0
CIRCLE
  5
132
330
21
100
AcDbEntity
  8
0
  6
Continuous
370
    50
100
AcDbCircle
 10
175.2
 20
136.9172334994055
 30
0.0
 40
6.25
  0
LINE
  5
133
330
21
100
AcDbEntity
  8
0
  6
Continuous
370
    50
100
AcDbLine
 10
92.20000000000002
 20
109.4172334994055
 30
0.0
 11
106.9082291465306
 21
118.7581353963716
 31
0.0
  0
LINE
  5
134
330
21
100
AcDbEntity
  8
0
  6
Continuous
370
    50
100
AcDbLine
 10
106.9082291465306
 20
118.7581353963716
 30
0.0
 11
109.4600841860677
 21
114.7399721521531
 31
0.0
  0
LINE
  5
135
330
21
100
AcDbEntity
  8
0
  6
Continuous
370
    50
100
AcDbLine
 10
109.4600841860677
 20
114.7399721521531
 30
0.0
 11
139.0054021582631
 21
133.5036121487494
 31
0.0
  0
LINE
  5
136
330
21
100
AcDbEntity
  8
0
  6
Continuous
370
    50
100
AcDbLine
 10
139.0054021582631
 20
133.5036121487494
 30
0.0
 11
136.4535471187259
 21
137.521775392968
 31
0.0
  0
LINE
  5
137
330
21
100
AcDbEntity
  8
0
  6
Continuous
370
    50
100
AcDbLine
 10
136.4535471187259
 20
137.521775392968
 30
0.0
 11
151.4521011369924
 21
147.0470568041582
 31
0.0
  0
ARC
  5
138
330
21
100
AcDbEntity
  8
0
  6
Continuous
370
    50
100
AcDbCircle
 10
157.8853491358255
 20
136.9172334994055
 30
0.0
 40
11.99999999999999
100
AcDbArc
 50
89.99999999999992
 51
122.4188129836238
  0
LINE
  5
139
330
21
100
AcDbEntity
  8
0
  6
Continuous
370
    50
100
AcDbLine
 10
157.8853491358255
 20
148.9172334994055
 30
0.0
 11
175.2
 21
148.9172334994055
 31
0.0
  0
ARC
  5
13A
330
21
100
AcDbEntity
  8
0
  6
Continuous
370
    50
100
AcDbCircle
 10
175.2
 20
136.9172334994055
 30
0.0
 40
12.00000000000001
100
AcDbArc
 50
355.9214202913677
 51
90.0
  0
LINE
  5
13B
330
21
100
AcDbEntity
  8
0
  6
Continuous
370
    50
100
AcDbLine
 10
187.1696093144974
 20
136.0637390012991
 30
0.0
 11
184.2
 21
94.41723349940559
 31
0.0
  0
LINE
  5
13C
330
21
100
AcDbEntity
  8
0
  6
Continuous
370
    50
100
AcDbLine
 10
184.2
 20
94.41723349940559
 30
0.0
 11
149.2
 21
94.41723349940559
 31
0.0
  0
LINE
  5
13D
330
21
100
AcDbEntity
  8
0
  6
Continuous
370
    50
100
AcDbLine
 10
149.2
 20
94.41723349940559
 30
0.0
 11
132.2
 21
104.4172334994055
 31
0.0
  0
LINE
  5
13E
330
21
100
AcDbEntity
  8
0
  6
Continuous
370
    50
100
AcDbLine
 10
132.2
 20
104.4172334994055
 30
0.0
 11
92.20000000000002
 21
104.4172334994055
 31
0.0
  0
LINE
  5
13F
330
21
100
AcDbEntity
  8
0
  6
Continuous
370
    50
100
AcDbLine
 10
92.20000000000002
 20
104.4172334994055
 30
0.0
 11
92.20000000000002
 21
109.4172334994055
 31
0.0
  0
DIMENSION
  5
140
330
21
100
AcDbEntity
  8
0
  6
Continuous
370
    25
100
AcDbDimension
  2
*D15
 10
92.20000000000004
 20
163.1915781693937
 30
0.0
 11
133.7655084310692
 21
163.1915781693937
 31
0.0
 70
   160
  1
<>
 71
     5
 42
83.0
  3
MM-ANSI-01
100
AcDbAlignedDimension
 13
175.2
 23
136.9172334994055
 33
0.0
 14
92.20000000000004
 24
109.4172334994055
 34
0.0
 50
180.0
100
AcDbRotatedDimension
1001
ACAD
1000
DSTYLE
1002
{
1070
   271
1070
     2
1070
   340
1005
7B
1070
   272
1070
     2
1070
    47
1040
0.0
1070
    48
1040
0.0
1002
}
  0
DIMENSION
  5
1DB
330
21
100
AcDbEntity
  8
0
  6
Continuous
370
    25
100
AcDbDimension
  2
*D16
 10
179.5404607591411
 20
141.4142214244902
 30
0.0
 11
160.897717484529
 21
129.4535675034005
 31
0.0
 70
   163
  1
<>
 71
     5
 42
12.50000000000005
  3
MM-ANSI-01
100
AcDbDiametricDimension
 15
170.8595392408591
 25
132.4202455743207
 35
0.0
 40
0.0
1001
ACAD
1000
DSTYLE
1002
{
1070
   271
1070
     2
1070
   340
1005
7B
1070
   272
1070
     2
1070
    47
1040
0.0
1070
    48
1040
0.0
1002
}
  0
DIMENSION
  5
252
330
21
100
AcDbEntity
  8
0
  6
Continuous
370
    25
100
AcDbDimension
  2
*D17
 10
90.20086187757749
 20
109.4172334994055
 30
0.0
 11
87.32197606584486
 21
100.1462875318743
 31
0.0
 70
   160
  1
<>
 71
     5
 42
5.0
  3
MM-ANSI-02
100
AcDbAlignedDimension
 13
92.20000000000004
 23
104.4172334994055
 33
0.0
 14
92.20000000000004
 24
109.4172334994055
 34
0.0
 50
90.0
100
AcDbRotatedDimension
1001
ACAD
1000
DSTYLE
1002
{
1070
   271
1070
     2
1070
   340
1005
7B
1070
   272
1070
     2
1070
    47
1040
0.0
1070
    48
1040
0.0
1002
}
  0
DIMENSION
  5
2F7
330
21
100
AcDbEntity
  8
0
  6
Continuous
370
    25
100
AcDbDimension
  2
*D18
 10
175.1999999999998
 20
136.9172334994054
 30
0.0
 11
204.1749348219924
 21
153.4191100737945
 31
0.0
 70
   164
  1
<>
 71
     5
 42
12.00000000000005
  3
MM-ANSI-01
100
AcDbRadialDimension
 15
185.0298245314678
 25
143.8001507356179
 35
0.0
 40
0.0
1001
ACAD
1000
DSTYLE
1002
{
1070
   271
1070
     2
1070
   141
1040
0.0
1070
   340
1005
7B
1070
   272
1070
     2
1070
    47
1040
0.0
1070
    48
1040
0.0
1002
}
  0
DIMENSION
  5
372
330
21
100
AcDbEntity
  8
0
  6
Continuous
370
    25
100
AcDbDimension
  2
*D19
 10
146.0530505303325
 20
143.6182278437757
 30
0.0
 11
138.8890855917448
 21
146.4800409550065
 31
0.0
 70
   160
  1
<>
 71
     5
 42
4.760000000000033
  3
MM-ANSI-02
100
AcDbAlignedDimension
 13
139.0054021582631
 23
133.5036121487494
 33
0.0
 14
136.4535471187259
 24
137.521775392968
 34
0.0
 50
302.4188129836237
100
AcDbRotatedDimension
1001
ACAD
1000
DSTYLE
1002
{
1070
   271
1070
     2
1070
   340
1005
7B
1070
   272
1070
     2
1070
    47
1040
0.0
1070
    48
1040
0.0
1002
}
  0
DIMENSION
  5
418
330
21
100
AcDbEntity
  8
0
  6
Continuous
370
    25
100
AcDbDimension
  2
*D20
 10
141.1001242917185
 20
130.2052525816526
 30
0.0
 11
127.0973425958497
 21
121.3123662387311
 31
0.0
 70
   160
  1
<>
 71
     5
 42
35.0
  3
MM-ANSI-02
100
AcDbAlignedDimension
 13
109.4600841860677
 23
114.7399721521531
 33
0.0
 14
139.0054021582631
 24
133.5036121487494
 34
0.0
 50
212.4188129836237
100
AcDbRotatedDimension
1001
ACAD
1000
DSTYLE
1002
{
1070
   271
1070
     2
1070
   340
1005
7B
1070
   272
1070
     2
1070
    47
1040
0.0
1070
    48
1040
0.0
1002
}
  0
DIMENSION
  5
4B2
330
21
100
AcDbEntity
  8
0
  6
Continuous
370
    25
100
AcDbDimension
  2
*D21
 10
89.52281988472533
 20
113.6327342118994
 30
0.0
 11
97.36951963922912
 21
118.6160161482606
 31
0.0
 70
   160
  1
<>
 71
     5
 42
17.42367506801011
  3
MM-ANSI-02
100
AcDbAlignedDimension
 13
106.9082291465306
 23
118.7581353963716
 33
0.0
 14
92.20000000000004
 24
109.4172334994055
 34
0.0
 50
32.41881298362383
100
AcDbRotatedDimension
1001
ACAD
1000
DSTYLE
1002
{
1070
   271
1070
     2
1070
   340
1005
7B
1070
   272
1070
     2
1070
    47
1040
0.0
1070
    48
1040
0.0
1002
}
  0
MTEXT
  5
552
330
21
100
AcDbEntity
  8
0
  6
Continuous
370
     5
100
AcDbMText
 10
44.50240278317824
 20
53.62975534235407
 30
0.0
 40
3.499999940395355
 41
97.54650115966796
 71
     1
 72
     1
  1
{\fArial|b0|i0;\W1.00;\H3.5000;\lMATERIAL: 3/16" C.R. STEEL\PALL DIMENSIONS IN MILLIMETERS U.O.N.}
  7
DEFAULT-ANSI
 73
     2
 44
0.9442214965820312
  0
MTEXT
  5
553
330
21
100
AcDbEntity
  8
0
  6
Continuous
370
     5
100
AcDbMText
 10
212.4013350503106
 20
26.19528834354301
 30
0.0
 40
2.5
 41
41.34527206420898
 71
     1
 72
     1
  1
{\fArial|b0|i0;\W1.00;\H2.5000;\lTBIRD SHOCK ADAPTER\PSIDE PLATE}
  7
DEFAULT-ANSI
 73
     2
 44
0.9442214965820312
  0
DIMENSION
  5
554
330
21
100
AcDbEntity
  8
0
  6
Continuous
370
    25
100
AcDbDimension
  2
*D22
 10
166.2851075283312
 20
104.4172334994055
 30
0.0
 11
166.2851075283312
 21
100.2939258674818
 31
0.0
 70
   160
  1
<>
 71
     5
 42
9.999999999999928
  3
MM-ANSI-03
100
AcDbAlignedDimension
 13
166.2851075283312
 23
94.41723349940559
 33
0.0
 14
132.2
 24
104.4172334994055
 34
0.0
 50
90.00000000000003
100
AcDbRotatedDimension
1001
ACAD
1000
DSTYLE
1002
{
1070
   271
1070
     2
1070
   340
1005
7B
1070
   272
1070
     2
1070
    47
1040
0.0
1070
    48
1040
0.0
1002
}
  0
DIMENSION
  5
5F4
330
21
100
AcDbEntity
  8
0
  6
Continuous
370
    25
100
AcDbDimension
  2
*D23
 10
184.2
 20
84.09439304154776
 30
0.0
 11
167.9693729954091
 21
84.09439304154776
 31
0.0
 70
   160
  1
<>
 71
     5
 42
34.99999999999997
  3
MM-ANSI-03
100
AcDbAlignedDimension
 13
149.2
 23
94.41723349940559
 33
0.0
 14
184.2
 24
94.41723349940559
 34
0.0
 50
180.0
100
AcDbRotatedDimension
1001
ACAD
1000
DSTYLE
1002
{
1070
   271
1070
     2
1070
   340
1005
7B
1070
   272
1070
     2
1070
    47
1040
0.0
1070
    48
1040
0.0
1002
}
  0
DIMENSION
  5
68E
330
21
100
AcDbEntity
  8
0
  6
Continuous
370
    25
100
AcDbDimension
  2
*D24
 10
132.2
 20
98.23747193047999
 30
0.0
 11
108.4939709747797
 21
98.23747193047999
 31
0.0
 70
   160
  1
<>
 71
     5
 42
40.0
  3
MM-ANSI-03
100
AcDbAlignedDimension
 13
92.20000000000004
 23
104.4172334994055
 33
0.0
 14
132.2
 24
104.4172334994055
 34
0.0
 50
180.0
100
AcDbRotatedDimension
1001
ACAD
1000
DSTYLE
1002
{
1070
   271
1070
     2
1070
   340
1005
7B
1070
   272
1070
     2
1070
    47
1040
0.0
1070
    48
1040
0.0
1002
}
  0
DIMENSION
  5
728
330
21
100
AcDbEntity
  8
0
  6
Continuous
370
    25
100
AcDbDimension
  2
*D25
 10
202.4072226499626
 20
136.9172334994055
 30
0.0
 11
202.4072226499626
 21
118.9420705486235
 31
0.0
 70
   160
  1
<>
 71
     5
 42
42.49999999999992
  3
MM-ANSI-03
100
AcDbAlignedDimension
 13
184.2
 23
94.41723349940559
 33
0.0
 14
175.2
 24
136.9172334994055
 34
0.0
 50
90.0
100
AcDbRotatedDimension
1001
ACAD
1000
DSTYLE
1002
{
1070
   271
1070
     2
1070
   340
1005
7B
1070
   272
1070
     2
1070
    47
1040
0.0
1070
    48
1040
0.0
1002
}
  0
ENDSEC
  0
SECTION
  2
OBJECTS
  0
DICTIONARY
  5
C
330
0
100
AcDbDictionary
281
     1
  3
ACAD_COLOR
350
1C
  3
ACAD_GROUP
350
D
  3
ACAD_LAYOUT
350
1A
  3
ACAD_MATERIAL
350
1B
  3
ACAD_MLINESTYLE
350
17
  3
ACAD_PLOTSETTINGS
350
19
  3
ACAD_PLOTSTYLENAME
350
E
  0
DICTIONARY
  5
1C
102
{ACAD_REACTORS
330
C
102
}
330
C
100
AcDbDictionary
281
     1
  0
DICTIONARY
  5
D
102
{ACAD_REACTORS
330
C
102
}
330
C
100
AcDbDictionary
281
     1
  0
DICTIONARY
  5
1A
102
{ACAD_REACTORS
330
C
102
}
330
C
100
AcDbDictionary
281
     1
  3
Layout1
350
20
  3
Layout2
350
28
  3
Model
350
24
  0
DICTIONARY
  5
1B
102
{ACAD_REACTORS
330
C
102
}
330
C
100
AcDbDictionary
281
     1
  0
DICTIONARY
  5
17
102
{ACAD_REACTORS
330
C
102
}
330
C
100
AcDbDictionary
281
     1
  3
Standard
350
18
  0
DICTIONARY
  5
19
102
{ACAD_REACTORS
330
C
102
}
330
C
100
AcDbDictionary
281
     1
  0
ACDBDICTIONARYWDFLT
  5
E
102
{ACAD_REACTORS
330
C
102
}
330
C
100
AcDbDictionary
281
     1
  3
Normal
350
F
100
AcDbDictionaryWithDefault
340
F
  0
LAYOUT
  5
20
102
{ACAD_REACTORS
330
1A
102
}
330
1A
100
AcDbPlotSettings
  1

  2

  4

  6

 40
0.0
 41
0.0
 42
0.0
 43
0.0
 44
0.0
 45
0.0
 46
0.0
 47
0.0
 48
0.0
 49
0.0
140
0.0
141
0.0
142
1.0
143
1.0
 70
   688
 72
     0
 73
     0
 74
     5
  7

 75
    16
147
1.0
 76
     0
 77
     2
 78
   300
148
0.0
149
0.0
100
AcDbLayout
  1
Layout1
 70
     1
 71
     1
 10
0.0
 20
0.0
 11
354.838
 21
274.193
 12
0.0
 22
0.0
 32
0.0
 14
0.0
 24
0.0
 34
0.0
 15
354.838
 25
274.193
 35
0.0
146
0.0
 13
0.0
 23
0.0
 33
0.0
 16
1.0
 26
0.0
 36
0.0
 17
0.0
 27
1.0
 37
0.0
 76
     0
330
1D
  0
LAYOUT
  5
28
102
{ACAD_REACTORS
330
1A
102
}
330
1A
100
AcDbPlotSettings
  1

  2

  4

  6

 40
0.0
 41
0.0
 42
0.0
 43
0.0
 44
0.0
 45
0.0
 46
0.0
 47
0.0
 48
0.0
 49
0.0
140
0.0
141
0.0
142
1.0
143
1.0
 70
   688
 72
     0
 73
     0
 74
     5
  7

 75
    16
147
1.0
 76
     0
 77
     2
 78
   300
148
0.0
149
0.0
100
AcDbLayout
  1
Layout2
 70
     1
 71
     2
 10
0.0
 20
0.0
 11
12.0
 21
9.0
 12
0.0
 22
0.0
 32
0.0
 14
0.0
 24
0.0
 34
0.0
 15
0.0
 25
0.0
 35
0.0
146
0.0
 13
0.0
 23
0.0
 33
0.0
 16
1.0
 26
0.0
 36
0.0
 17
0.0
 27
1.0
 37
0.0
 76
     0
330
25
  0
LAYOUT
  5
24
102
{ACAD_REACTORS
330
1A
102
}
330
1A
100
AcDbPlotSettings
  1

  2

  4

  6

 40
0.0
 41
0.0
 42
0.0
 43
0.0
 44
0.0
 45
0.0
 46
0.0
 47
0.0
 48
0.0
 49
0.0
140
0.0
141
0.0
142
1.0
143
1.0
 70
  1712
 72
     0
 73
     0
 74
     0
  7

 75
     0
147
1.0
 76
     0
 77
     2
 78
   300
148
0.0
149
0.0
100
AcDbLayout
  1
Model
 70
     1
 71
     0
 10
0.0
 20
0.0
 11
12.0
 21
9.0
 12
0.0
 22
0.0
 32
0.0
 14
0.0
 24
0.0
 34
0.0
 15
0.0
 25
0.0
 35
0.0
146
0.0
 13
0.0
 23
0.0
 33
0.0
 16
1.0
 26
0.0
 36
0.0
 17
0.0
 27
1.0
 37
0.0
 76
     0
330
21
  0
MLINESTYLE
  5
18
102
{ACAD_REACTORS
330
17
102
}
330
17
100
AcDbMlineStyle
  2
STANDARD
 70
     0
  3

 62
   256
 51
90.0
 52
90.0
 71
     2
 49
0.5
 62
   256
  6
BYLAYER
 49
-0.5
 62
   256
  6
BYLAYER
  0
ACDBPLACEHOLDER
  5
F
102
{ACAD_REACTORS
330
E
102
}
330
E
  0
ENDSEC
  0
EOF
