  0
SECTION
  2
HEADER
  9
$ACADVER
  1
AC1015
  9
$ACADMAINTVER
 70
    18
  9
$DWGCODEPAGE
  3
ANSI_1252
  9
$INSBASE
 10
0.0
 20
0.0
 30
0.0
  9
$EXTMIN
 10
0.0
 20
0.0
 30
0.0
  9
$EXTMAX
 10
354.838
 20
274.193
 30
0.0
  9
$LIMMIN
 10
0.0
 20
0.0
  9
$LIMMAX
 10
354.838
 20
274.193
  9
$ORTHOMODE
 70
     0
  9
$REGENMODE
 70
     1
  9
$FILLMODE
 70
     1
  9
$QTEXTMODE
 70
     0
  9
$MIRRTEXT
 70
     0
  9
$LTSCALE
 40
1.0
  9
$ATTMODE
 70
     1
  9
$TEXTSIZE
 40
0.2
  9
$TRACEWID
 40
0.05
  9
$TEXTSTYLE
  7
Standard
  9
$CLAYER
  8
0
  9
$CELTYPE
  6
ByLayer
  9
$CECOLOR
 62
   256
  9
$CELTSCALE
 40
1.0
  9
$DISPSILH
 70
     0
  9
$DIMSCALE
 40
1.0
  9
$DIMASZ
 40
1.799999999999999
  9
$DIMEXO
 40
0.0625
  9
$DIMDLI
 40
0.38
  9
$DIMRND
 40
0.0
  9
$DIMDLE
 40
0.0
  9
$DIMEXE
 40
0.18
  9
$DIMTP
 40
0.0
  9
$DIMTM
 40
0.0
  9
$DIMTXT
 40
0.3048000037670135
  9
$DIMCEN
 40
0.09
  9
$DIMTSZ
 40
0.0
  9
$DIMTOL
 70
     0
  9
$DIMLIM
 70
     0
  9
$DIMTIH
 70
     1
  9
$DIMTOH
 70
     1
  9
$DIMSE1
 70
     0
  9
$DIMSE2
 70
     0
  9
$DIMTAD
 70
     0
  9
$DIMZIN
 70
     0
  9
$DIMBLK
  1

  9
$DIMASO
 70
     1
  9
$DIMSHO
 70
     1
  9
$DIMPOST
  1

  9
$DIMAPOST
  1

  9
$DIMALT
 70
     0
  9
$DIMALTD
 70
     2
  9
$DIMALTF
 40
25.4
  9
$DIMLFAC
 40
1.0
  9
$DIMTOFL
 70
     0
  9
$DIMTVP
 40
0.0
  9
$DIMTIX
 70
     0
  9
$DIMSOXD
 70
     0
  9
$DIMSAH
 70
     0
  9
$DIMBLK1
  1

  9
$DIMBLK2
  1

  9
$DIMSTYLE
  2
Standard
  9
$DIMCLRD
 70
     0
  9
$DIMCLRE
 70
     0
  9
$DIMCLRT
 70
     0
  9
$DIMTFAC
 40
1.0
  9
$DIMGAP
 40
0.09
  9
$DIMJUST
 70
     0
  9
$DIMSD1
 70
     0
  9
$DIMSD2
 70
     0
  9
$DIMTOLJ
 70
     1
  9
$DIMTZIN
 70
     0
  9
$DIMALTZ
 70
     0
  9
$DIMALTTZ
 70
     0
  9
$DIMUPT
 70
     0
  9
$DIMDEC
 70
     4
  9
$DIMTDEC
 70
     4
  9
$DIMALTU
 70
     2
  9
$DIMALTTD
 70
     2
  9
$DIMTXSTY
  7
Standard
  9
$DIMAUNIT
 70
     0
  9
$DIMADEC
 70
     0
  9
$DIMALTRND
 40
0.0
  9
$DIMAZIN
 70
     0
  9
$DIMDSEP
 70
    46
  9
$DIMATFIT
 70
     3
  9
$DIMFRAC
 70
     0
  9
$DIMLDRBLK
  1

  9
$DIMLUNIT
 70
     2
  9
$DIMLWD
 70
    -2
  9
$DIMLWE
 70
    -2
  9
$DIMTMOVE
 70
     0
  9
$LUNITS
 70
     2
  9
$LUPREC
 70
     4
  9
$SKETCHINC
 40
0.1
  9
$FILLETRAD
 40
0.0
  9
$AUNITS
 70
     0
  9
$AUPREC
 70
     0
  9
$MENU
  1
.
  9
$ELEVATION
 40
0.0
  9
$PELEVATION
 40
0.0
  9
$THICKNESS
 40
0.0
  9
$LIMCHECK
 70
     0
  9
$CHAMFERA
 40
0.0
  9
$CHAMFERB
 40
0.0
  9
$CHAMFERC
 40
0.0
  9
$CHAMFERD
 40
0.0
  9
$SKPOLY
 70
     0
  9
$TDCREATE
 40
2453891.877067940
  9
$TDUCREATE
 40
2453892.043734606
  9
$TDUPDATE
 40
2453891.877067940
  9
$TDUUPDATE
 40
2453892.043734606
  9
$TDINDWG
 40
0.0000487963
  9
$TDUSRTIMER
 40
0.0000487963
  9
$USRTIMER
 70
     1
  9
$ANGBASE
 50
0.0
  9
$ANGDIR
 70
     0
  9
$PDMODE
 70
     0
  9
$PDSIZE
 40
0.0
  9
$PLINEWID
 40
0.0
  9
$SPLFRAME
 70
     0
  9
$SPLINETYPE
 70
     6
  9
$SPLINESEGS
 70
     8
  9
$HANDSEED
  5
2AE
  9
$SURFTAB1
 70
     6
  9
$SURFTAB2
 70
     6
  9
$SURFTYPE
 70
     6
  9
$SURFU
 70
     6
  9
$SURFV
 70
     6
  9
$UCSBASE
  2

  9
$UCSNAME
  2

  9
$UCSORG
 10
0.0
 20
0.0
 30
0.0
  9
$UCSXDIR
 10
1.0
 20
0.0
 30
0.0
  9
$UCSYDIR
 10
0.0
 20
1.0
 30
0.0
  9
$UCSORTHOREF
  2

  9
$UCSORTHOVIEW
 70
     0
  9
$UCSORGTOP
 10
0.0
 20
0.0
 30
0.0
  9
$UCSORGBOTTOM
 10
0.0
 20
0.0
 30
0.0
  9
$UCSORGLEFT
 10
0.0
 20
0.0
 30
0.0
  9
$UCSORGRIGHT
 10
0.0
 20
0.0
 30
0.0
  9
$UCSORGFRONT
 10
0.0
 20
0.0
 30
0.0
  9
$UCSORGBACK
 10
0.0
 20
0.0
 30
0.0
  9
$PUCSBASE
  2

  9
$PUCSNAME
  2

  9
$PUCSORG
 10
0.0
 20
0.0
 30
0.0
  9
$PUCSXDIR
 10
1.0
 20
0.0
 30
0.0
  9
$PUCSYDIR
 10
0.0
 20
1.0
 30
0.0
  9
$PUCSORTHOREF
  2

  9
$PUCSORTHOVIEW
 70
     0
  9
$PUCSORGTOP
 10
0.0
 20
0.0
 30
0.0
  9
$PUCSORGBOTTOM
 10
0.0
 20
0.0
 30
0.0
  9
$PUCSORGLEFT
 10
0.0
 20
0.0
 30
0.0
  9
$PUCSORGRIGHT
 10
0.0
 20
0.0
 30
0.0
  9
$PUCSORGFRONT
 10
0.0
 20
0.0
 30
0.0
  9
$PUCSORGBACK
 10
0.0
 20
0.0
 30
0.0
  9
$USERI1
 70
     0
  9
$USERI2
 70
     0
  9
$USERI3
 70
     0
  9
$USERI4
 70
     0
  9
$USERI5
 70
     0
  9
$USERR1
 40
0.0
  9
$USERR2
 40
0.0
  9
$USERR3
 40
0.0
  9
$USERR4
 40
0.0
  9
$USERR5
 40
0.0
  9
$WORLDVIEW
 70
     1
  9
$SHADEDGE
 70
     3
  9
$SHADEDIF
 70
    70
  9
$TILEMODE
 70
     1
  9
$MAXACTVP
 70
    64
  9
$PINSBASE
 10
0.0
 20
0.0
 30
0.0
  9
$PLIMCHECK
 70
     0
  9
$PEXTMIN
 10
0.0
 20
0.0
 30
0.0
  9
$PEXTMAX
 10
354.838
 20
274.193
 30
0.0
  9
$PLIMMIN
 10
0.0
 20
0.0
  9
$PLIMMAX
 10
354.838
 20
274.193
  9
$UNITMODE
 70
     0
  9
$VISRETAIN
 70
     1
  9
$PLINEGEN
 70
     0
  9
$PSLTSCALE
 70
     1
  9
$TREEDEPTH
 70
  3020
  9
$CMLSTYLE
  2
Standard
  9
$CMLJUST
 70
     0
  9
$CMLSCALE
 40
1.0
  9
$PROXYGRAPHICS
 70
     1
  9
$MEASUREMENT
 70
     0
  9
$CELWEIGHT
370
    -1
  9
$ENDCAPS
280
     0
  9
$JOINSTYLE
280
     0
  9
$LWDISPLAY
290
     0
  9
$INSUNITS
 70
     0
  9
$HYPERLINKBASE
  1

  9
$STYLESHEET
  1

  9
$XEDIT
290
     1
  9
$CEPSNTYPE
380
     0
  9
$PSTYLEMODE
290
     1
  9
$FINGERPRINTGUID
  2
{F0EA8494-B8CA-4AFD-93A0-E6CBD69C671A}
  9
$VERSIONGUID
  2
{76A18830-3157-4584-B2FF-E8568E42EF2F}
  9
$EXTNAMES
290
     1
  9
$PSVPSCALE
 40
0.0
  9
$OLESTARTUP
290
     0
  0
ENDSEC
  0
SECTION
  2
CLASSES
  0
CLASS
  1
ACDBDICTIONARYWDFLT
  2
AcDbDictionaryWithDefault
  3
ObjectDBX Classes
 90
        0
280
     0
281
     0
  0
CLASS
  1
DICTIONARYVAR
  2
AcDbDictionaryVar
  3
ObjectDBX Classes
 90
        0
280
     0
281
     0
  0
CLASS
  1
ACDBPLACEHOLDER
  2
AcDbPlaceHolder
  3
ObjectDBX Classes
 90
        0
280
     0
281
     0
  0
CLASS
  1
LAYOUT
  2
AcDbLayout
  3
ObjectDBX Classes
 90
        0
280
     0
281
     0
  0
ENDSEC
  0
SECTION
  2
TABLES
  0
TABLE
  2
VPORT
  5
8
330
0
100
AcDbSymbolTable
 70
     1
  0
VPORT
  5
13
330
8
100
AcDbSymbolTableRecord
100
AcDbViewportTableRecord
  2
*Active
 70
     0
 10
0.0
 20
0.0
 11
1.0
 21
1.0
 12
177.419
 22
137.0965
 13
0.0
 23
0.0
 14
1.0
 24
1.0
 15
0.0
 25
0.0
 16
0.0
 26
0.0
 36
1.0
 17
0.0
 27
0.0
 37
0.0
 40
274.193
 41
1.294117647058823
 42
50.0
 43
0.0
 44
0.0
 50
0.0
 51
0.0
 71
     0
 72
   100
 73
     1
 74
     1
 75
     0
 76
     0
 77
     0
 78
     0
281
     0
 65
     1
110
0.0
120
0.0
130
0.0
111
1.0
121
0.0
131
0.0
112
0.0
122
1.0
132
0.0
 79
     0
146
0.0
  0
ENDTAB
  0
TABLE
  2
LTYPE
  5
5
330
0
100
AcDbSymbolTable
 70
    59
  0
LTYPE
  5
14
330
5
100
AcDbSymbolTableRecord
100
AcDbLinetypeTableRecord
  2
ByBlock
 70
     0
  3

 72
    65
 73
     0
 40
0.0
  0
LTYPE
  5
15
330
5
100
AcDbSymbolTableRecord
100
AcDbLinetypeTableRecord
  2
ByLayer
 70
     0
  3

 72
    65
 73
     0
 40
0.0
  0
LTYPE
  5
16
330
5
100
AcDbSymbolTableRecord
100
AcDbLinetypeTableRecord
  2
Continuous
 70
     0
  3
Solid line
 72
    65
 73
     0
 40
0.0
  0
LTYPE
  5
2A
330
5
100
AcDbSymbolTableRecord
100
AcDbLinetypeTableRecord
  2
BY_STANDARD
 70
     0
  3
By Standard ____________    ____    ____   _
 72
    65
 73
     6
 40
1.240299999999999
 49
0.6614
 74
     0
 49
-0.0827
 74
     0
 49
0.1654
 74
     0
 49
-0.0827
 74
     0
 49
0.1654
 74
     0
 49
-0.0827
 74
     0
  0
LTYPE
  5
2B
330
5
100
AcDbSymbolTableRecord
100
AcDbLinetypeTableRecord
  2
CHAIN
 70
     0
  3
Chain ____ _ ____ _ ____ _ ____ _ ____ _ ____
 72
    65
 73
     4
 40
0.7087
 49
0.4724000000000001
 74
     0
 49
-0.0591
 74
     0
 49
0.1181
 74
     0
 49
-0.0591
 74
     0
  0
LTYPE
  5
2C
330
5
100
AcDbSymbolTableRecord
100
AcDbLinetypeTableRecord
  2
DASH_DOT
 70
     0
  3
Dash dot __ . __ . __ . __ . __ . __ . __ . __
 72
    65
 73
     4
 40
0.37
 49
0.24
 74
     0
 49
-0.06
 74
     0
 49
0.01
 74
     0
 49
-0.06
 74
     0
  0
LTYPE
  5
2D
330
5
100
AcDbSymbolTableRecord
100
AcDbLinetypeTableRecord
  2
DOUBLE_DASH_DOT
 70
     0
  3
Double-Dash Dot __ __ . __ __ . __ __ . __ _
 72
    65
 73
     6
 40
0.4398
 49
0.24
 74
     0
 49
-0.06
 74
     0
 49
0.0098
 74
     0
 49
-0.06
 74
     0
 49
0.01
 74
     0
 49
-0.06
 74
     0
  0
LTYPE
  5
2E
330
5
100
AcDbSymbolTableRecord
100
AcDbLinetypeTableRecord
  2
DASH_TRIPLE_DOT
 70
     0
  3
Dash Triple-Dot _ . . . _ . . . _ . . . _
 72
    65
 73
     8
 40
0.51
 49
0.24
 74
     0
 49
-0.06
 74
     0
 49
0.01
 74
     0
 49
-0.06
 74
     0
 49
0.01
 74
     0
 49
-0.06
 74
     0
 49
0.01
 74
     0
 49
-0.06
 74
     0
  0
LTYPE
  5
2F
330
5
100
AcDbSymbolTableRecord
100
AcDbLinetypeTableRecord
  2
DASHED
 70
     0
  3
Dashed __ __ __ __ __ __ __ __ __ __ __ __ __ _
 72
    65
 73
     2
 40
0.2067
 49
0.1654
 74
     0
 49
-0.0413
 74
     0
  0
LTYPE
  5
30
330
5
100
AcDbSymbolTableRecord
100
AcDbLinetypeTableRecord
  2
DASH_DOUBLE_DOT
 70
     0
  3
Dash Double-Dot __ . . __ . . __ . . __ . .
 72
    65
 73
     6
 40
0.4398
 49
0.24
 74
     0
 49
-0.06
 74
     0
 49
0.0098
 74
     0
 49
-0.06
 74
     0
 49
0.01
 74
     0
 49
-0.06
 74
     0
  0
LTYPE
  5
31
330
5
100
AcDbSymbolTableRecord
100
AcDbLinetypeTableRecord
  2
DASHED_SPACE
 70
     0
  3
Dashed Space __ __ __ __ __ __ __ __ __ __ __ _
 72
    65
 73
     2
 40
0.2067
 49
0.1654
 74
     0
 49
-0.0413
 74
     0
  0
LTYPE
  5
32
330
5
100
AcDbSymbolTableRecord
100
AcDbLinetypeTableRecord
  2
DOTTED
 70
     0
  3
Dotted . . . . . . . . . . . . . . . . . . . . 
 72
    65
 73
     2
 40
0.0482
 49
0.0069
 74
     0
 49
-0.0413
 74
     0
  0
LTYPE
  5
33
330
5
100
AcDbSymbolTableRecord
100
AcDbLinetypeTableRecord
  2
DOUBLE_DASH_CHAIN
 70
     0
  3
Double-Dash Chain ______  __  __  ______  __  _
 72
    65
 73
     6
 40
1.240299999999999
 49
0.6614
 74
     0
 49
-0.0827
 74
     0
 49
0.1654
 74
     0
 49
-0.0827
 74
     0
 49
0.1654
 74
     0
 49
-0.0827
 74
     0
  0
LTYPE
  5
35
330
5
100
AcDbSymbolTableRecord
100
AcDbLinetypeTableRecord
  2
DOUBLE_DASH_DOUBLE_DOT
 70
     0
  3
Double-Dash Double-dot _ _ . . _ _ . . _
 72
    65
 73
     8
 40
0.7400000000000001
 49
0.24
 74
     0
 49
-0.06
 74
     0
 49
0.24
 74
     0
 49
-0.06
 74
     0
 49
0.01
 74
     0
 49
-0.06
 74
     0
 49
0.01
 74
     0
 49
-0.06
 74
     0
  0
LTYPE
  5
36
330
5
100
AcDbSymbolTableRecord
100
AcDbLinetypeTableRecord
  2
DOUBLE_DASH_TRIPLE_DOT
 70
     0
  3
Double Dash Triple Dot __ __ . . . __ __ . .
 72
    65
 73
    10
 40
0.8100000000000001
 49
0.24
 74
     0
 49
-0.06
 74
     0
 49
0.24
 74
     0
 49
-0.06
 74
     0
 49
0.01
 74
     0
 49
-0.06
 74
     0
 49
0.01
 74
     0
 49
-0.06
 74
     0
 49
0.01
 74
     0
 49
-0.06
 74
     0
  0
LTYPE
  5
37
330
5
100
AcDbSymbolTableRecord
100
AcDbLinetypeTableRecord
  2
LONG_DASH_DOTTED
 70
     0
  3
Long Dash Dotted ____ . ____ . ____ . ____ . _
 72
    65
 73
     4
 40
0.3543
 49
0.2362
 74
     0
 49
-0.0295
 74
     0
 49
0.0591
 74
     0
 49
-0.0295
 74
     0
  0
LTYPE
  5
38
330
5
100
AcDbSymbolTableRecord
100
AcDbLinetypeTableRecord
  2
LONG_DASH_DOUBLE_DOT
 70
     0
  3
Long Dash Double Dot ________  .  .  ________  
 72
    65
 73
     6
 40
0.6799999999999999
 49
0.48
 74
     0
 49
-0.06
 74
     0
 49
0.01
 74
     0
 49
-0.06
 74
     0
 49
0.01
 74
     0
 49
-0.06
 74
     0
  0
LTYPE
  5
39
330
5
100
AcDbSymbolTableRecord
100
AcDbLinetypeTableRecord
  2
LONG_DASH_TRIPLE_DOT
 70
     0
  3
Long Dash Triple Dot ____ ... ____ ... ____
 72
    65
 73
     8
 40
0.3689
 49
0.2362
 74
     0
 49
-0.0295
 74
     0
 49
0.0049
 74
     0
 49
-0.0295
 74
     0
 49
0.0049
 74
     0
 49
-0.0295
 74
     0
 49
0.0049
 74
     0
 49
-0.0295
 74
     0
  0
LTYPE
  5
3A
330
5
100
AcDbSymbolTableRecord
100
AcDbLinetypeTableRecord
  2
BORDER
 70
     0
  3
Border __ __ . __ __ . __ __ . __ __ . __ __ .
 72
    65
 73
     6
 40
1.75
 49
0.5
 74
     0
 49
-0.25
 74
     0
 49
0.5
 74
     0
 49
-0.25
 74
     0
 49
0.0
 74
     0
 49
-0.25
 74
     0
  0
LTYPE
  5
3B
330
5
100
AcDbSymbolTableRecord
100
AcDbLinetypeTableRecord
  2
BORDER2
 70
     0
  3
Border (.5x) __.__.__.__.__.__.__.__.__.__.__.
 72
    65
 73
     6
 40
0.875
 49
0.25
 74
     0
 49
-0.125
 74
     0
 49
0.25
 74
     0
 49
-0.125
 74
     0
 49
0.0
 74
     0
 49
-0.125
 74
     0
  0
LTYPE
  5
3C
330
5
100
AcDbSymbolTableRecord
100
AcDbLinetypeTableRecord
  2
BORDERX2
 70
     0
  3
Border (2x) ____  ____  .  ____  ____  .  ___
 72
    65
 73
     6
 40
3.5
 49
1.0
 74
     0
 49
-0.5
 74
     0
 49
1.0
 74
     0
 49
-0.5
 74
     0
 49
0.0
 74
     0
 49
-0.5
 74
     0
  0
LTYPE
  5
3D
330
5
100
AcDbSymbolTableRecord
100
AcDbLinetypeTableRecord
  2
CENTER
 70
     0
  3
Center ____ _ ____ _ ____ _ ____ _ ____ _ ____
 72
    65
 73
     4
 40
2.0
 49
1.25
 74
     0
 49
-0.25
 74
     0
 49
0.25
 74
     0
 49
-0.25
 74
     0
  0
LTYPE
  5
3E
330
5
100
AcDbSymbolTableRecord
100
AcDbLinetypeTableRecord
  2
CENTER2
 70
     0
  3
Center (.5x) ___ _ ___ _ ___ _ ___ _ ___ _ ___
 72
    65
 73
     4
 40
1.125
 49
0.75
 74
     0
 49
-0.125
 74
     0
 49
0.125
 74
     0
 49
-0.125
 74
     0
  0
LTYPE
  5
3F
330
5
100
AcDbSymbolTableRecord
100
AcDbLinetypeTableRecord
  2
CENTERX2
 70
     0
  3
Center (2x) ________  __  ________  __  _____
 72
    65
 73
     4
 40
4.0
 49
2.5
 74
     0
 49
-0.5
 74
     0
 49
0.5
 74
     0
 49
-0.5
 74
     0
  0
LTYPE
  5
40
330
5
100
AcDbSymbolTableRecord
100
AcDbLinetypeTableRecord
  2
DASHDOT2
 70
     0
  3
Dash dot (.5x) _._._._._._._._._._._._._._._.
 72
    65
 73
     4
 40
0.5
 49
0.25
 74
     0
 49
-0.125
 74
     0
 49
0.0
 74
     0
 49
-0.125
 74
     0
  0
LTYPE
  5
41
330
5
100
AcDbSymbolTableRecord
100
AcDbLinetypeTableRecord
  2
DASHDOTX2
 70
     0
  3
Dash dot (2x) ____  .  ____  .  ____  .  ___
 72
    65
 73
     4
 40
2.0
 49
1.0
 74
     0
 49
-0.5
 74
     0
 49
0.0
 74
     0
 49
-0.5
 74
     0
  0
LTYPE
  5
43
330
5
100
AcDbSymbolTableRecord
100
AcDbLinetypeTableRecord
  2
DASHED2
 70
     0
  3
Dashed (.5x) _ _ _ _ _ _ _ _ _ _ _ _ _ _ _ _ _
 72
    65
 73
     2
 40
0.375
 49
0.25
 74
     0
 49
-0.125
 74
     0
  0
LTYPE
  5
44
330
5
100
AcDbSymbolTableRecord
100
AcDbLinetypeTableRecord
  2
DASHEDX2
 70
     0
  3
Dashed (2x) ____  ____  ____  ____  ____  ___
 72
    65
 73
     2
 40
1.5
 49
1.0
 74
     0
 49
-0.5
 74
     0
  0
LTYPE
  5
45
330
5
100
AcDbSymbolTableRecord
100
AcDbLinetypeTableRecord
  2
DIVIDE
 70
     0
  3
Divide ____ . . ____ . . ____ . . ____ . . ____
 72
    65
 73
     6
 40
1.25
 49
0.5
 74
     0
 49
-0.25
 74
     0
 49
0.0
 74
     0
 49
-0.25
 74
     0
 49
0.0
 74
     0
 49
-0.25
 74
     0
  0
LTYPE
  5
46
330
5
100
AcDbSymbolTableRecord
100
AcDbLinetypeTableRecord
  2
DIVIDE2
 70
     0
  3
Divide (.5x) __..__..__..__..__..__..__..__.._
 72
    65
 73
     6
 40
0.625
 49
0.25
 74
     0
 49
-0.125
 74
     0
 49
0.0
 74
     0
 49
-0.125
 74
     0
 49
0.0
 74
     0
 49
-0.125
 74
     0
  0
LTYPE
  5
47
330
5
100
AcDbSymbolTableRecord
100
AcDbLinetypeTableRecord
  2
DIVIDEX2
 70
     0
  3
Divide (2x) ________  .  .  ________  .  .  _
 72
    65
 73
     6
 40
2.5
 49
1.0
 74
     0
 49
-0.5
 74
     0
 49
0.0
 74
     0
 49
-0.5
 74
     0
 49
0.0
 74
     0
 49
-0.5
 74
     0
  0
LTYPE
  5
48
330
5
100
AcDbSymbolTableRecord
100
AcDbLinetypeTableRecord
  2
DOT
 70
     0
  3
Dot . . . . . . . . . . . . . . . . . . . . . .
 72
    65
 73
     2
 40
0.25
 49
0.0
 74
     0
 49
-0.25
 74
     0
  0
LTYPE
  5
49
330
5
100
AcDbSymbolTableRecord
100
AcDbLinetypeTableRecord
  2
DOT2
 70
     0
  3
Dot (.5x) .....................................
 72
    65
 73
     2
 40
0.125
 49
0.0
 74
     0
 49
-0.125
 74
     0
  0
LTYPE
  5
4A
330
5
100
AcDbSymbolTableRecord
100
AcDbLinetypeTableRecord
  2
DOTX2
 70
     0
  3
Dot (2x) .  .  .  .  .  .  .  .  .  .  .  .  . 
 72
    65
 73
     2
 40
0.5
 49
0.0
 74
     0
 49
-0.5
 74
     0
  0
LTYPE
  5
4B
330
5
100
AcDbSymbolTableRecord
100
AcDbLinetypeTableRecord
  2
HIDDEN
 70
     0
  3
Hidden __ __ __ __ __ __ __ __ __ __ __ __ __ _
 72
    65
 73
     2
 40
0.375
 49
0.25
 74
     0
 49
-0.125
 74
     0
  0
LTYPE
  5
4C
330
5
100
AcDbSymbolTableRecord
100
AcDbLinetypeTableRecord
  2
HIDDEN2
 70
     0
  3
Hidden (.5x) _ _ _ _ _ _ _ _ _ _ _ _ _ _ _ _ _
 72
    65
 73
     2
 40
0.1875
 49
0.125
 74
     0
 49
-0.0625
 74
     0
  0
LTYPE
  5
4D
330
5
100
AcDbSymbolTableRecord
100
AcDbLinetypeTableRecord
  2
HIDDENX2
 70
     0
  3
Hidden (2x) ____ ____ ____ ____ ____ ____ ____
 72
    65
 73
     2
 40
0.75
 49
0.5
 74
     0
 49
-0.25
 74
     0
  0
LTYPE
  5
4E
330
5
100
AcDbSymbolTableRecord
100
AcDbLinetypeTableRecord
  2
PHANTOM
 70
     0
  3
Phantom ______  __  __  ______  __  __  ______
 72
    65
 73
     6
 40
2.5
 49
1.25
 74
     0
 49
-0.25
 74
     0
 49
0.25
 74
     0
 49
-0.25
 74
     0
 49
0.25
 74
     0
 49
-0.25
 74
     0
  0
LTYPE
  5
4F
330
5
100
AcDbSymbolTableRecord
100
AcDbLinetypeTableRecord
  2
PHANTOM2
 70
     0
  3
Phantom (.5x) ___ _ _ ___ _ _ ___ _ _ ___ _ _
 72
    65
 73
     6
 40
1.25
 49
0.625
 74
     0
 49
-0.125
 74
     0
 49
0.125
 74
     0
 49
-0.125
 74
     0
 49
0.125
 74
     0
 49
-0.125
 74
     0
  0
LTYPE
  5
50
330
5
100
AcDbSymbolTableRecord
100
AcDbLinetypeTableRecord
  2
PHANTOMX2
 70
     0
  3
Phantom (2x) ____________    ____    ____   _
 72
    65
 73
     6
 40
5.0
 49
2.5
 74
     0
 49
-0.5
 74
     0
 49
0.5
 74
     0
 49
-0.5
 74
     0
 49
0.5
 74
     0
 49
-0.5
 74
     0
  0
LTYPE
  5
51
330
5
100
AcDbSymbolTableRecord
100
AcDbLinetypeTableRecord
  2
ACAD_ISO02W100
 70
     0
  3
ISO dash __ __ __ __ __ __ __ __ __ __ __ __ __
 72
    65
 73
     2
 40
0.59
 49
0.47
 74
     0
 49
-0.12
 74
     0
  0
LTYPE
  5
52
330
5
100
AcDbSymbolTableRecord
100
AcDbLinetypeTableRecord
  2
ACAD_ISO03W100
 70
     0
  3
ISO dash space __    __    __    __    __    __
 72
    65
 73
     2
 40
1.179999999999999
 49
0.47
 74
     0
 49
-0.71
 74
     0
  0
LTYPE
  5
53
330
5
100
AcDbSymbolTableRecord
100
AcDbLinetypeTableRecord
  2
ACAD_ISO04W100
 70
     0
  3
ISO long-dash dot ____ . ____ . ____ . ____ . _
 72
    65
 73
     4
 40
1.179999999999999
 49
0.9399999999999998
 74
     0
 49
-0.12
 74
     0
 49
0.0
 74
     0
 49
-0.12
 74
     0
  0
LTYPE
  5
54
330
5
100
AcDbSymbolTableRecord
100
AcDbLinetypeTableRecord
  2
ACAD_ISO05W100
 70
     0
  3
ISO long-dash double-dot ____ .. ____ .. ____ .
 72
    65
 73
     6
 40
1.299999999999999
 49
0.9399999999999998
 74
     0
 49
-0.12
 74
     0
 49
0.0
 74
     0
 49
-0.12
 74
     0
 49
0.0
 74
     0
 49
-0.12
 74
     0
  0
LTYPE
  5
55
330
5
100
AcDbSymbolTableRecord
100
AcDbLinetypeTableRecord
  2
ACAD_ISO06W100
 70
     0
  3
ISO long-dash triple-dot ____ ... ____ ... ____
 72
    65
 73
     8
 40
1.419999999999999
 49
0.9399999999999998
 74
     0
 49
-0.12
 74
     0
 49
0.0
 74
     0
 49
-0.12
 74
     0
 49
0.0
 74
     0
 49
-0.12
 74
     0
 49
0.0
 74
     0
 49
-0.12
 74
     0
  0
LTYPE
  5
56
330
5
100
AcDbSymbolTableRecord
100
AcDbLinetypeTableRecord
  2
ACAD_ISO07W100
 70
     0
  3
ISO dot . . . . . . . . . . . . . . . . . . . .
 72
    65
 73
     2
 40
0.12
 49
0.0
 74
     0
 49
-0.12
 74
     0
  0
LTYPE
  5
57
330
5
100
AcDbSymbolTableRecord
100
AcDbLinetypeTableRecord
  2
ACAD_ISO08W100
 70
     0
  3
ISO long-dash short-dash ____ __ ____ __ ____ _
 72
    65
 73
     4
 40
0.95
 49
0.47
 74
     0
 49
-0.12
 74
     0
 49
0.24
 74
     0
 49
-0.12
 74
     0
  0
LTYPE
  5
58
330
5
100
AcDbSymbolTableRecord
100
AcDbLinetypeTableRecord
  2
ACAD_ISO09W100
 70
     0
  3
ISO long-dash double-short-dash ____ __ __ ____
 72
    65
 73
     6
 40
1.31
 49
0.47
 74
     0
 49
-0.12
 74
     0
 49
0.24
 74
     0
 49
-0.12
 74
     0
 49
0.24
 74
     0
 49
-0.12
 74
     0
  0
LTYPE
  5
59
330
5
100
AcDbSymbolTableRecord
100
AcDbLinetypeTableRecord
  2
ACAD_ISO10W100
 70
     0
  3
ISO dash dot __ . __ . __ . __ . __ . __ . __ .
 72
    65
 73
     4
 40
0.71
 49
0.47
 74
     0
 49
-0.12
 74
     0
 49
0.0
 74
     0
 49
-0.12
 74
     0
  0
LTYPE
  5
5A
330
5
100
AcDbSymbolTableRecord
100
AcDbLinetypeTableRecord
  2
ACAD_ISO11W100
 70
     0
  3
ISO double-dash dot __ __ . __ __ . __ __ . __ 
 72
    65
 73
     6
 40
1.299999999999999
 49
0.47
 74
     0
 49
-0.12
 74
     0
 49
0.47
 74
     0
 49
-0.12
 74
     0
 49
0.0
 74
     0
 49
-0.12
 74
     0
  0
LTYPE
  5
5B
330
5
100
AcDbSymbolTableRecord
100
AcDbLinetypeTableRecord
  2
ACAD_ISO12W100
 70
     0
  3
ISO dash double-dot __ . . __ . . __ . . __ . .
 72
    65
 73
     6
 40
0.8299999999999998
 49
0.47
 74
     0
 49
-0.12
 74
     0
 49
0.0
 74
     0
 49
-0.12
 74
     0
 49
0.0
 74
     0
 49
-0.12
 74
     0
  0
LTYPE
  5
5C
330
5
100
AcDbSymbolTableRecord
100
AcDbLinetypeTableRecord
  2
ACAD_ISO13W100
 70
     0
  3
ISO double-dash double-dot __ __ . . __ __ . . 
 72
    65
 73
     8
 40
1.419999999999999
 49
0.47
 74
     0
 49
-0.12
 74
     0
 49
0.47
 74
     0
 49
-0.12
 74
     0
 49
0.0
 74
     0
 49
-0.12
 74
     0
 49
0.0
 74
     0
 49
-0.12
 74
     0
  0
LTYPE
  5
5D
330
5
100
AcDbSymbolTableRecord
100
AcDbLinetypeTableRecord
  2
ACAD_ISO14W100
 70
     0
  3
ISO dash triple-dot __ . . . __ . . . __ . . . 
 72
    65
 73
     8
 40
0.95
 49
0.47
 74
     0
 49
-0.12
 74
     0
 49
0.0
 74
     0
 49
-0.12
 74
     0
 49
0.0
 74
     0
 49
-0.12
 74
     0
 49
0.0
 74
     0
 49
-0.12
 74
     0
  0
LTYPE
  5
5E
330
5
100
AcDbSymbolTableRecord
100
AcDbLinetypeTableRecord
  2
ACAD_ISO15W100
 70
     0
  3
ISO double-dash triple-dot __ __ . . . __ __ . 
 72
    65
 73
    10
 40
1.539999999999999
 49
0.47
 74
     0
 49
-0.12
 74
     0
 49
0.47
 74
     0
 49
-0.12
 74
     0
 49
0.0
 74
     0
 49
-0.12
 74
     0
 49
0.0
 74
     0
 49
-0.12
 74
     0
 49
0.0
 74
     0
 49
-0.12
 74
     0
  0
LTYPE
  5
61
330
5
100
AcDbSymbolTableRecord
100
AcDbLinetypeTableRecord
  2
FENCELINE1
 70
     0
  3
Fenceline circle ----0-----0----0-----0----0---
 72
    65
 73
     4
 40
1.45
 49
0.25
 74
     0
 49
-0.1
 74
     4
 75
   133
340
60
 46
0.1
 50
0.0
 44
-0.1
 45
0.0
 49
-0.1
 74
     0
 49
1.0
 74
     0
  0
LTYPE
  5
62
330
5
100
AcDbSymbolTableRecord
100
AcDbLinetypeTableRecord
  2
FENCELINE2
 70
     0
  3
Fenceline square ----[]-----[]----[]-----[]----
 72
    65
 73
     4
 40
1.45
 49
0.25
 74
     0
 49
-0.1
 74
     4
 75
   132
340
60
 46
0.1
 50
0.0
 44
-0.1
 45
0.0
 49
-0.1
 74
     0
 49
1.0
 74
     0
  0
LTYPE
  5
63
330
5
100
AcDbSymbolTableRecord
100
AcDbLinetypeTableRecord
  2
TRACKS
 70
     0
  3
Tracks -|-|-|-|-|-|-|-|-|-|-|-|-|-|-|-|-|-|-|-|
 72
    65
 73
     2
 40
0.3
 49
0.15
 74
     4
 75
   130
340
60
 46
0.25
 50
0.0
 44
0.0
 45
0.0
 49
0.15
 74
     0
  0
LTYPE
  5
64
330
5
100
AcDbSymbolTableRecord
100
AcDbLinetypeTableRecord
  2
BATTING
 70
     0
  3
Batting SSSSSSSSSSSSSSSSSSSSSSSSSSSSSSSSSSSSSSS
 72
    65
 73
     4
 40
0.4001000000000001
 49
0.0001
 74
     0
 49
-0.1
 74
     4
 75
   134
340
60
 46
0.1
 50
0.0
 44
-0.1
 45
0.0
 49
-0.2
 74
     4
 75
   134
340
60
 46
0.1
 50
180.0
 44
0.1
 45
0.0
 49
-0.1
 74
     0
  0
LTYPE
  5
65
330
5
100
AcDbSymbolTableRecord
100
AcDbLinetypeTableRecord
  2
HOT_WATER_SUPPLY
 70
     0
  3
Hot water supply ---- HW ---- HW ---- HW ----
 72
    65
 73
     3
 40
0.9
 49
0.5
 74
     0
 49
-0.2
 74
     2
 75
     0
340
11
 46
0.1
 50
0.0
 44
-0.1
 45
-0.05
  9
HW
 49
-0.2
 74
     0
  0
LTYPE
  5
66
330
5
100
AcDbSymbolTableRecord
100
AcDbLinetypeTableRecord
  2
GAS_LINE
 70
     0
  3
Gas line ----GAS----GAS----GAS----GAS----GAS---
 72
    65
 73
     3
 40
0.95
 49
0.5
 74
     0
 49
-0.2
 74
     2
 75
     0
340
11
 46
0.1
 50
0.0
 44
-0.1
 45
-0.05
  9
GAS
 49
-0.25
 74
     0
  0
LTYPE
  5
67
330
5
100
AcDbSymbolTableRecord
100
AcDbLinetypeTableRecord
  2
ZIGZAG
 70
     0
  3
Zig zag /\/\/\/\/\/\/\/\/\/\/\/\/\/\/\/\/\/\/\/
 72
    65
 73
     4
 40
0.8001000000000001
 49
0.0001
 74
     0
 49
-0.2
 74
     4
 75
   131
340
60
 46
0.2
 50
0.0
 44
-0.2
 45
0.0
 49
-0.4
 74
     4
 75
   131
340
60
 46
0.2
 50
180.0
 44
0.2
 45
0.0
 49
-0.2
 74
     0
  0
ENDTAB
  0
TABLE
  2
LAYER
  5
2
330
0
100
AcDbSymbolTable
 70
    29
  0
LAYER
  5
10
330
2
100
AcDbSymbolTableRecord
100
AcDbLayerTableRecord
  2
0
 70
     0
 62
     7
  6
Continuous
370
    -3
390
F
  0
LAYER
  5
7F
330
2
100
AcDbSymbolTableRecord
100
AcDbLayerTableRecord
  2
Visible Edges
 70
     0
 62
     7
  6
Continuous
370
    50
390
F
  0
LAYER
  5
80
330
2
100
AcDbSymbolTableRecord
100
AcDbLayerTableRecord
  2
Hidden Edges
 70
     0
 62
     7
  6
DASHED
370
    35
390
F
  0
LAYER
  5
81
330
2
100
AcDbSymbolTableRecord
100
AcDbLayerTableRecord
  2
Tangent Edges
 70
     0
 62
     7
  6
Continuous
370
    50
390
F
  0
LAYER
  5
82
330
2
100
AcDbSymbolTableRecord
100
AcDbLayerTableRecord
  2
Section View Lines
 70
     0
 62
     7
  6
DOUBLE_DASH_CHAIN
370
    70
390
F
  0
LAYER
  5
83
330
2
100
AcDbSymbolTableRecord
100
AcDbLayerTableRecord
  2
Detail Circle Lines
 70
     0
 62
     7
  6
DOUBLE_DASH_CHAIN
370
    50
390
F
  0
LAYER
  5
84
330
2
100
AcDbSymbolTableRecord
100
AcDbLayerTableRecord
  2
Dimensions
 70
     0
 62
     7
  6
Continuous
370
    25
390
F
  0
LAYER
  5
85
330
2
100
AcDbSymbolTableRecord
100
AcDbLayerTableRecord
  2
Center Mark
 70
     0
 62
     7
  6
CHAIN
370
    25
390
F
  0
LAYER
  5
86
330
2
100
AcDbSymbolTableRecord
100
AcDbLayerTableRecord
  2
Symbols
 70
     0
 62
     7
  6
Continuous
370
    25
390
F
  0
LAYER
  5
87
330
2
100
AcDbSymbolTableRecord
100
AcDbLayerTableRecord
  2
Leader Lines
 70
     0
 62
     7
  6
Continuous
370
    25
390
F
  0
LAYER
  5
88
330
2
100
AcDbSymbolTableRecord
100
AcDbLayerTableRecord
  2
Sketch Lines
 70
     0
 62
     7
  6
Continuous
370
    25
390
F
  0
LAYER
  5
89
330
2
100
AcDbSymbolTableRecord
100
AcDbLayerTableRecord
  2
Phantom Lines
 70
     0
 62
     7
  6
DOUBLE_DASH_CHAIN
370
    70
390
F
  0
LAYER
  5
8A
330
2
100
AcDbSymbolTableRecord
100
AcDbLayerTableRecord
  2
Symmetry Lines
 70
     0
 62
     7
  6
CHAIN
370
    25
390
F
  0
LAYER
  5
8B
330
2
100
AcDbSymbolTableRecord
100
AcDbLayerTableRecord
  2
Break Lines
 70
     0
 62
     7
  6
Continuous
370
    50
390
F
  0
LAYER
  5
8C
330
2
100
AcDbSymbolTableRecord
100
AcDbLayerTableRecord
  2
Chain Lines
 70
     0
 62
     7
  6
CHAIN
370
    50
390
F
  0
LAYER
  5
8D
330
2
100
AcDbSymbolTableRecord
100
AcDbLayerTableRecord
  2
Stitch 1 Lines
 70
     0
 62
     7
  6
DASHED_SPACE
370
    25
390
F
  0
LAYER
  5
8E
330
2
100
AcDbSymbolTableRecord
100
AcDbLayerTableRecord
  2
Stitch 2 Lines
 70
     0
 62
     7
  6
DOTTED
370
    25
390
F
  0
LAYER
  5
8F
330
2
100
AcDbSymbolTableRecord
100
AcDbLayerTableRecord
  2
Centerline
 70
     0
 62
     7
  6
CHAIN
370
    25
390
F
  0
LAYER
  5
90
330
2
100
AcDbSymbolTableRecord
100
AcDbLayerTableRecord
  2
Sketch Only Lines
 70
     0
 62
     7
  6
Continuous
370
    50
390
F
  0
LAYER
  5
91
330
2
100
AcDbSymbolTableRecord
100
AcDbLayerTableRecord
  2
07 Lines (Long)
 70
     0
 62
     7
  6
LONG_DASH_TRIPLE_DOT
370
    25
390
F
  0
LAYER
  5
92
330
2
100
AcDbSymbolTableRecord
100
AcDbLayerTableRecord
  2
Bend Extents
 70
     0
 62
     7
  6
Continuous
370
    50
390
F
  0
LAYER
  5
93
330
2
100
AcDbSymbolTableRecord
100
AcDbLayerTableRecord
  2
Work Point
 70
     0
 62
     7
  6
Continuous
370
    25
390
F
  0
LAYER
  5
94
330
2
100
AcDbSymbolTableRecord
100
AcDbLayerTableRecord
  2
Work Axis
 70
     0
 62
     7
  6
CHAIN
370
    25
390
F
  0
LAYER
  5
95
330
2
100
AcDbSymbolTableRecord
100
AcDbLayerTableRecord
  2
Work Plane
 70
     0
 62
     7
  6
DOUBLE_DASH_CHAIN
370
    25
390
F
  0
LAYER
  5
96
330
2
100
AcDbSymbolTableRecord
100
AcDbLayerTableRecord
  2
Hatch
 70
     0
 62
     7
  6
Continuous
370
    25
390
F
  0
LAYER
  5
97
330
2
100
AcDbSymbolTableRecord
100
AcDbLayerTableRecord
  2
Text
 70
     0
 62
     7
  6
Continuous
370
    25
390
F
  0
LAYER
  5
AE
330
2
100
AcDbSymbolTableRecord
100
AcDbLayerTableRecord
  2
2dTransBorder
 70
     0
 62
     7
  6
Continuous
370
    50
390
F
  0
LAYER
  5
107
330
2
100
AcDbSymbolTableRecord
100
AcDbLayerTableRecord
  2
2dTransTitleBlock
 70
     0
 62
     7
  6
Continuous
370
    50
390
F
  0
LAYER
  5
150
330
2
100
AcDbSymbolTableRecord
100
AcDbLayerTableRecord
  2
Defpoints
 70
     0
 62
     7
  6
Continuous
290
     0
370
    -3
390
F
  0
ENDTAB
  0
TABLE
  2
STYLE
  5
3
330
0
100
AcDbSymbolTable
 70
    27
  0
STYLE
  5
11
330
3
100
AcDbSymbolTableRecord
100
AcDbTextStyleTableRecord
  2
Standard
 70
     0
 40
0.0
 41
1.0
 50
0.0
 71
     0
 42
0.2
  3
ARIAL.TTF
  4

1001
ACAD
1000
Arial
1071
      256
  0
STYLE
  5
60
330
3
100
AcDbSymbolTableRecord
100
AcDbTextStyleTableRecord
  2

 70
     1
 40
0.0
 41
1.0
 50
0.0
 71
     0
 42
0.2
  3
ltypeshp.shx
  4

  0
STYLE
  5
68
330
3
100
AcDbSymbolTableRecord
100
AcDbTextStyleTableRecord
  2
Text Style1
 70
     0
 40
0.0
 41
1.0
 50
0.0
 71
     0
 42
0.2
  3
ARIAL.TTF
  4

1001
ACAD
1000
Arial
1071
      256
  0
STYLE
  5
69
330
3
100
AcDbSymbolTableRecord
100
AcDbTextStyleTableRecord
  2
Text Style2
 70
     0
 40
0.0
 41
1.0
 50
0.0
 71
     0
 42
0.2
  3
Aigdt___.ttf
  4

1001
ACAD
1000
AIGDT
1071
      514
  0
STYLE
  5
6A
330
3
100
AcDbSymbolTableRecord
100
AcDbTextStyleTableRecord
  2
Text Style3
 70
     0
 40
0.0
 41
1.0
 50
0.0
 71
     0
 42
0.2
  3
TIMES.TTF
  4

1001
ACAD
1000
Times New Roman
1071
      256
  0
STYLE
  5
6B
330
3
100
AcDbSymbolTableRecord
100
AcDbTextStyleTableRecord
  2
Text Style4
 70
     0
 40
0.0
 41
1.0
 50
0.0
 71
     0
 42
0.2
  3
TIMES.TTF
  4

1001
ACAD
1000
Times New Roman
1071
      256
  0
STYLE
  5
6C
330
3
100
AcDbSymbolTableRecord
100
AcDbTextStyleTableRecord
  2
Text Style5
 70
     0
 40
0.0
 41
1.0
 50
0.0
 71
     0
 42
0.2
  3
ARIAL.TTF
  4

1001
ACAD
1000
Arial
1071
      256
  0
STYLE
  5
6D
330
3
100
AcDbSymbolTableRecord
100
AcDbTextStyleTableRecord
  2
Text Style6
 70
     0
 40
0.0
 41
1.0
 50
0.0
 71
     0
 42
0.2
  3
ARIAL.TTF
  4

1001
ACAD
1000
Arial
1071
      256
  0
STYLE
  5
6E
330
3
100
AcDbSymbolTableRecord
100
AcDbTextStyleTableRecord
  2
Text Style7
 70
     0
 40
0.0
 41
1.0
 50
0.0
 71
     0
 42
0.2
  3
ARIAL.TTF
  4

1001
ACAD
1000
Arial
1071
      256
  0
STYLE
  5
6F
330
3
100
AcDbSymbolTableRecord
100
AcDbTextStyleTableRecord
  2
Text Style8
 70
     0
 40
0.0
 41
1.0
 50
0.0
 71
     0
 42
0.2
  3
ARIAL.TTF
  4

1001
ACAD
1000
Arial
1071
      256
  0
STYLE
  5
70
330
3
100
AcDbSymbolTableRecord
100
AcDbTextStyleTableRecord
  2
Text Style9
 70
     0
 40
0.0
 41
1.0
 50
0.0
 71
     0
 42
0.2
  3
ARIAL.TTF
  4

1001
ACAD
1000
Arial
1071
      256
  0
STYLE
  5
71
330
3
100
AcDbSymbolTableRecord
100
AcDbTextStyleTableRecord
  2
Text Style10
 70
     0
 40
0.0
 41
1.0
 50
0.0
 71
     0
 42
0.2
  3
Aigdt___.ttf
  4

1001
ACAD
1000
AIGDT
1071
      514
  0
STYLE
  5
72
330
3
100
AcDbSymbolTableRecord
100
AcDbTextStyleTableRecord
  2
Text Style11
 70
     0
 40
0.0
 41
1.0
 50
0.0
 71
     0
 42
0.2
  3
ARIAL.TTF
  4

1001
ACAD
1000
Arial
1071
      256
  0
STYLE
  5
73
330
3
100
AcDbSymbolTableRecord
100
AcDbTextStyleTableRecord
  2
Text Style12
 70
     0
 40
0.0
 41
1.0
 50
0.0
 71
     0
 42
0.2
  3
ARIAL.TTF
  4

1001
ACAD
1000
Arial
1071
      256
  0
STYLE
  5
74
330
3
100
AcDbSymbolTableRecord
100
AcDbTextStyleTableRecord
  2
Text Style13
 70
     0
 40
0.0
 41
1.0
 50
0.0
 71
     0
 42
0.2
  3
Aigdt___.ttf
  4

1001
ACAD
1000
AIGDT
1071
      514
  0
STYLE
  5
75
330
3
100
AcDbSymbolTableRecord
100
AcDbTextStyleTableRecord
  2
Text Style14
 70
     0
 40
0.0
 41
1.0
 50
0.0
 71
     0
 42
0.2
  3
ARIAL.TTF
  4

1001
ACAD
1000
Arial
1071
      256
  0
STYLE
  5
76
330
3
100
AcDbSymbolTableRecord
100
AcDbTextStyleTableRecord
  2
Text Style15
 70
     0
 40
0.0
 41
1.0
 50
0.0
 71
     0
 42
0.2
  3
Aigdt___.ttf
  4

1001
ACAD
1000
AIGDT
1071
      514
  0
STYLE
  5
77
330
3
100
AcDbSymbolTableRecord
100
AcDbTextStyleTableRecord
  2
Text Style16
 70
     0
 40
0.0
 41
1.0
 50
0.0
 71
     0
 42
0.2
  3
ARIAL.TTF
  4

1001
ACAD
1000
Arial
1071
      256
  0
STYLE
  5
78
330
3
100
AcDbSymbolTableRecord
100
AcDbTextStyleTableRecord
  2
Text Style17
 70
     0
 40
0.0
 41
1.0
 50
0.0
 71
     0
 42
0.2
  3
ARIAL.TTF
  4

1001
ACAD
1000
Arial
1071
      256
  0
STYLE
  5
79
330
3
100
AcDbSymbolTableRecord
100
AcDbTextStyleTableRecord
  2
Text Style18
 70
     0
 40
0.0
 41
1.0
 50
0.0
 71
     0
 42
0.2
  3
Aigdt___.ttf
  4

1001
ACAD
1000
AIGDT
1071
      514
  0
STYLE
  5
7A
330
3
100
AcDbSymbolTableRecord
100
AcDbTextStyleTableRecord
  2
Text Style19
 70
     0
 40
0.0
 41
1.0
 50
0.0
 71
     0
 42
0.2
  3
ARIAL.TTF
  4

1001
ACAD
1000
Arial
1071
      256
  0
STYLE
  5
7B
330
3
100
AcDbSymbolTableRecord
100
AcDbTextStyleTableRecord
  2
Text Style20
 70
     0
 40
0.0
 41
1.0
 50
0.0
 71
     0
 42
0.2
  3
ARIAL.TTF
  4

1001
ACAD
1000
Arial
1071
      256
  0
STYLE
  5
7C
330
3
100
AcDbSymbolTableRecord
100
AcDbTextStyleTableRecord
  2
Text Style21
 70
     0
 40
0.0
 41
1.0
 50
0.0
 71
     0
 42
0.2
  3
Aigdt___.ttf
  4

1001
ACAD
1000
AIGDT
1071
      514
  0
STYLE
  5
7D
330
3
100
AcDbSymbolTableRecord
100
AcDbTextStyleTableRecord
  2
Text Style22
 70
     0
 40
0.0
 41
1.0
 50
0.0
 71
     0
 42
0.2
  3
ARIAL.TTF
  4

1001
ACAD
1000
Arial
1071
      256
  0
STYLE
  5
7E
330
3
100
AcDbSymbolTableRecord
100
AcDbTextStyleTableRecord
  2
Text Style23
 70
     0
 40
0.0
 41
1.0
 50
0.0
 71
     0
 42
0.2
  3
ARIAL.TTF
  4

1001
ACAD
1000
Arial
1071
      256
  0
STYLE
  5
98
330
3
100
AcDbSymbolTableRecord
100
AcDbTextStyleTableRecord
  2
Current-ANSI
 70
     0
 40
0.0
 41
1.0
 50
0.0
 71
     0
 42
0.2
  3
ARIAL.TTF
  4

1001
ACAD
1000
Arial
1071
      256
  0
STYLE
  5
99
330
3
100
AcDbSymbolTableRecord
100
AcDbTextStyleTableRecord
  2
DEFAULT-ANSI
 70
     0
 40
0.0
 41
1.0
 50
0.0
 71
     0
 42
0.2
  3
ARIAL.TTF
  4

1001
ACAD
1000
Arial
1071
      256
  0
ENDTAB
  0
TABLE
  2
VIEW
  5
6
330
0
100
AcDbSymbolTable
 70
     0
  0
ENDTAB
  0
TABLE
  2
UCS
  5
7
330
0
100
AcDbSymbolTable
 70
     0
  0
ENDTAB
  0
TABLE
  2
APPID
  5
9
330
0
100
AcDbSymbolTable
 70
     1
  0
APPID
  5
12
330
9
100
AcDbSymbolTableRecord
100
AcDbRegAppTableRecord
  2
ACAD
 70
     0
  0
ENDTAB
  0
TABLE
  2
DIMSTYLE
  5
A
330
0
100
AcDbSymbolTable
 70
    14
100
AcDbDimStyleTable
 71
     2
340
AA
340
29
  0
DIMSTYLE
105
29
330
A
100
AcDbSymbolTableRecord
100
AcDbDimStyleTableRecord
  2
Standard
 70
     0
340
11
  0
DIMSTYLE
105
9A
330
A
100
AcDbSymbolTableRecord
100
AcDbDimStyleTableRecord
  2
1 32 - FRACTION
 70
     0
 40
0.5
 41
2.5
 42
1.587499999999999
 43
5.999999999999999
 44
3.174999999999999
 45
0.00000001
 46
10.0
 73
     0
 74
     0
 78
    12
 79
     3
140
3.04800009727478
144
0.0393700787401575
147
0.8
171
     1
176
   250
177
   250
178
    18
271
     5
272
     2
277
     5
284
    12
340
11
344
9B
371
    25
372
    25
  0
DIMSTYLE
105
A2
330
A
100
AcDbSymbolTableRecord
100
AcDbDimStyleTableRecord
  2
1 64 - FRACTION
 70
     0
 40
0.5
 41
2.5
 42
1.587499999999999
 43
5.999999999999999
 44
3.174999999999999
 45
0.00000001
 46
10.0
 73
     0
 74
     0
 78
    12
 79
     3
140
3.04800009727478
144
0.0393700787401575
147
0.8
171
     1
176
   250
177
   250
178
    18
271
     6
272
     2
277
     5
284
    12
340
11
344
9B
371
    25
372
    25
  0
DIMSTYLE
105
A3
330
A
100
AcDbSymbolTableRecord
100
AcDbDimStyleTableRecord
  2
ANSI - ALIGNED
 70
     0
 40
0.5
 41
2.5
 42
1.587499999999999
 43
5.999999999999999
 44
3.174999999999999
 45
0.00000001
 46
10.0
 73
     0
 78
     4
 79
     1
140
3.04800009727478
144
0.0393700787401575
147
0.8
171
     1
176
   250
177
   250
178
    18
271
     2
272
     2
284
     4
340
11
344
9B
371
    25
372
    25
  0
DIMSTYLE
105
A4
330
A
100
AcDbSymbolTableRecord
100
AcDbDimStyleTableRecord
  2
ANSI FRACTION - ALIGNED
 70
     0
 40
0.5
 41
2.5
 42
1.587499999999999
 43
5.999999999999999
 44
3.174999999999999
 45
0.00000001
 46
10.0
 73
     0
 78
    12
 79
     3
140
3.04800009727478
144
0.0393700787401575
147
0.8
171
     1
176
   250
177
   250
178
    18
272
     2
277
     5
284
    12
340
11
344
9B
371
    25
372
    25
  0
DIMSTYLE
105
A5
330
A
100
AcDbSymbolTableRecord
100
AcDbDimStyleTableRecord
  2
DEFAULT-ANSI
 70
     0
 40
0.5
 41
2.5
 42
1.587499999999999
 43
5.999999999999999
 44
3.174999999999999
 45
0.00000001
 46
10.0
140
3.04800009727478
144
0.0393700787401575
147
0.8
171
     1
176
   250
177
   250
178
    18
271
     2
272
     2
340
11
344
9B
371
    25
372
    25
  0
DIMSTYLE
105
A6
330
A
100
AcDbSymbolTableRecord
100
AcDbDimStyleTableRecord
  2
DEFAULT-ANSI FRACTION
 70
     0
 40
0.5
 41
2.5
 42
1.587499999999999
 43
5.999999999999999
 44
3.174999999999999
 45
0.00000001
 46
10.0
 78
    12
 79
     3
140
3.04800009727478
144
0.0393700787401575
147
0.8
171
     1
176
   250
177
   250
178
    18
272
     2
277
     5
284
    12
340
11
344
9B
371
    25
372
    25
  0
DIMSTYLE
105
A7
330
A
100
AcDbSymbolTableRecord
100
AcDbDimStyleTableRecord
  2
MM-ANSI
 70
     0
 40
0.5
 41
2.5
 42
1.587499999999999
 43
5.999999999999999
 44
3.174999999999999
 45
0.00000001
 46
10.0
 73
     0
 78
     8
 79
     2
140
3.04800009727478
143
1.0
147
1.600199999999999
171
     1
176
   250
177
   250
178
    18
179
     1
271
     2
272
     2
284
     8
340
11
344
9B
371
    25
372
    25
  0
DIMSTYLE
105
A8
330
A
100
AcDbSymbolTableRecord
100
AcDbDimStyleTableRecord
  2
MM-ANSI-01
 70
     0
 40
0.5
 41
2.5
 42
1.587499999999999
 43
5.999999999999999
 44
3.174999999999999
 45
0.00000001
 46
10.0
 73
     0
 74
     0
 78
     8
 79
     2
140
5.0
143
1.0
146
0.6096000194549561
147
1.600199999999999
171
     1
176
   250
177
   250
178
    18
179
     1
271
     2
272
     2
284
     8
340
11
344
9B
371
    25
372
    25
  0
DIMSTYLE
105
A9
330
A
100
AcDbSymbolTableRecord
100
AcDbDimStyleTableRecord
  2
MM-ANSI-02
 70
     0
 40
0.5
 41
2.5
 42
1.587499999999999
 43
5.999999999999999
 44
3.174999999999999
 45
0.00000001
 46
10.0
 73
     0
 74
     0
 78
     8
 79
     2
140
5.0
143
1.0
146
0.6096000194549561
147
1.600199999999999
171
     1
176
   250
177
   250
178
    18
179
     1
271
     2
272
     2
284
     8
340
11
344
9B
371
    25
372
    25
  0
DIMSTYLE
105
AA
102
{ACAD_REACTORS
330
14F
330
1EA
102
}
330
A
100
AcDbSymbolTableRecord
100
AcDbDimStyleTableRecord
  2
MM-ANSI-03
 70
     0
 40
0.5
 41
2.5
 42
1.587499999999999
 43
5.999999999999999
 44
3.174999999999999
 45
0.00000001
 46
10.0
 78
     8
 79
     2
140
5.0
143
1.0
146
0.6096000194549561
147
1.600199999999999
171
     1
176
   250
177
   250
178
    18
179
     1
271
     2
272
     2
284
     8
340
11
344
9B
371
    25
372
    25
  0
DIMSTYLE
105
AB
330
A
100
AcDbSymbolTableRecord
100
AcDbDimStyleTableRecord
  2
X . XX mm [in]
 70
     0
  4
 in
 40
0.5
 41
2.5
 42
2.387599999999999
 43
6.349999999999999
 44
3.174999999999999
 45
0.00000001
 46
10.0
 73
     0
 74
     0
 78
     8
 79
     2
140
3.04800009727478
143
0.03937
147
1.600199999999999
170
     1
171
     3
176
   250
177
   250
178
    18
179
     1
271
     2
272
     2
284
     8
340
11
344
9B
371
    25
372
    25
  0
DIMSTYLE
105
AC
330
A
100
AcDbSymbolTableRecord
100
AcDbDimStyleTableRecord
  2
X . XXX
 70
     0
 40
0.5
 41
2.5
 42
2.387599999999999
 43
6.349999999999999
 44
3.174999999999999
 45
0.00000001
 46
10.0
 73
     0
 74
     0
 78
     4
 79
     1
140
3.04800009727478
144
0.0393700787401575
147
1.600199999999999
171
     1
176
   250
177
   250
178
    18
179
     1
271
     3
272
     2
284
     4
340
11
344
9B
371
    25
372
    25
  0
DIMSTYLE
105
AD
330
A
100
AcDbSymbolTableRecord
100
AcDbDimStyleTableRecord
  2
X . XXX in [mm]
 70
     0
  4
 mm
 40
0.5
 41
2.5
 42
2.387599999999999
 43
6.349999999999999
 44
3.174999999999999
 45
0.00000001
 46
10.0
 73
     0
 74
     0
 78
     4
 79
     1
140
3.04800009727478
144
0.0393700787401575
147
1.600199999999999
170
     1
176
   250
177
   250
178
    18
179
     1
271
     3
272
     2
284
     4
340
11
344
9B
371
    25
372
    25
  0
ENDTAB
  0
TABLE
  2
BLOCK_RECORD
  5
1
330
0
100
AcDbSymbolTable
 70
     8
  0
BLOCK_RECORD
  5
21
330
1
100
AcDbSymbolTableRecord
100
AcDbBlockTableRecord
  2
*Model_Space
340
24
  0
BLOCK_RECORD
  5
1D
330
1
100
AcDbSymbolTableRecord
100
AcDbBlockTableRecord
  2
*Paper_Space
340
20
  0
BLOCK_RECORD
  5
25
330
1
100
AcDbSymbolTableRecord
100
AcDbBlockTableRecord
  2
*Paper_Space0
340
28
  0
BLOCK_RECORD
  5
9B
330
1
100
AcDbSymbolTableRecord
100
AcDbBlockTableRecord
  2
_Closed
340
0
  0
BLOCK_RECORD
  5
AF
330
1
100
AcDbSymbolTableRecord
100
AcDbBlockTableRecord
  2
Borders Default Border
340
0
102
{BLKREFS
331
106
102
}
  0
BLOCK_RECORD
  5
108
330
1
100
AcDbSymbolTableRecord
100
AcDbBlockTableRecord
  2
Title Blocks ANSI - Large
340
0
102
{BLKREFS
331
13A
102
}
  0
BLOCK_RECORD
  5
151
330
1
100
AcDbSymbolTableRecord
100
AcDbBlockTableRecord
  2
*D4
340
0
  0
BLOCK_RECORD
  5
1EB
330
1
100
AcDbSymbolTableRecord
100
AcDbBlockTableRecord
  2
*D5
340
0
  0
BLOCK_RECORD
  5
286
330
1
100
AcDbSymbolTableRecord
100
AcDbBlockTableRecord
  2
*D6
340
0
  0
BLOCK_RECORD
  5
293
330
1
100
AcDbSymbolTableRecord
100
AcDbBlockTableRecord
  2
*D7
340
0
  0
ENDTAB
  0
ENDSEC
  0
SECTION
  2
BLOCKS
  0
BLOCK
  5
22
330
21
100
AcDbEntity
  8
0
100
AcDbBlockBegin
  2
*Model_Space
 70
     0
 10
0.0
 20
0.0
 30
0.0
  3
*Model_Space
  1

  0
ENDBLK
  5
23
330
21
100
AcDbEntity
  8
0
100
AcDbBlockEnd
  0
BLOCK
  5
1E
330
1D
100
AcDbEntity
 67
     1
  8
0
100
AcDbBlockBegin
  2
*Paper_Space
 70
     0
 10
0.0
 20
0.0
 30
0.0
  3
*Paper_Space
  1

  0
ENDBLK
  5
1F
330
1D
100
AcDbEntity
 67
     1
  8
0
100
AcDbBlockEnd
  0
BLOCK
  5
26
330
25
100
AcDbEntity
  8
0
100
AcDbBlockBegin
  2
*Paper_Space0
 70
     0
 10
0.0
 20
0.0
 30
0.0
  3
*Paper_Space0
  1

  0
ENDBLK
  5
27
330
25
100
AcDbEntity
  8
0
100
AcDbBlockEnd
  0
BLOCK
  5
A0
330
9B
100
AcDbEntity
  8
0
100
AcDbBlockBegin
  2
_Closed
 70
     0
 10
0.0
 20
0.0
 30
0.0
  3
_Closed
  1

  0
LINE
  5
9C
330
9B
100
AcDbEntity
  8
0
  6
ByBlock
 62
     0
370
    -2
100
AcDbLine
 10
-10.0
 20
1.666666666666666
 30
0.0
 11
0.0
 21
0.0
 31
0.0
  0
LINE
  5
9D
330
9B
100
AcDbEntity
  8
0
  6
ByBlock
 62
     0
370
    -2
100
AcDbLine
 10
0.0
 20
0.0
 30
0.0
 11
-10.0
 21
-1.666666666666666
 31
0.0
  0
LINE
  5
9E
330
9B
100
AcDbEntity
  8
0
  6
ByBlock
 62
     0
370
    -2
100
AcDbLine
 10
-10.0
 20
1.666666666666666
 30
0.0
 11
-10.0
 21
-1.666666666666666
 31
0.0
  0
LINE
  5
9F
330
9B
100
AcDbEntity
  8
0
  6
ByBlock
 62
     0
370
    -2
100
AcDbLine
 10
0.0
 20
0.0
 30
0.0
 11
-10.0
 21
0.0
 31
0.0
  0
ENDBLK
  5
A1
330
9B
100
AcDbEntity
  8
0
100
AcDbBlockEnd
  0
BLOCK
  5
B0
330
AF
100
AcDbEntity
  8
0
100
AcDbBlockBegin
  2
Borders Default Border
 70
     0
 10
0.0
 20
0.0
 30
0.0
  3
Borders Default Border
  1

  0
POLYLINE
  5
B2
330
AF
100
AcDbEntity
  8
2dTransBorder
  6
Continuous
 48
0.0
370
    50
100
AcDb2dPolyline
 66
     1
 10
0.0
 20
0.0
 30
0.0
  0
VERTEX
  5
B3
330
B2
100
AcDbEntity
  8
2dTransBorder
  6
Continuous
 48
0.0
370
    50
100
AcDbVertex
100
AcDb2dVertex
 10
19.0499997138977
 20
12.69999980926513
 30
0.0
  0
VERTEX
  5
B4
330
B2
100
AcDbEntity
  8
2dTransBorder
  6
Continuous
 48
0.0
370
    50
100
AcDbVertex
100
AcDb2dVertex
 10
19.0499997138977
 20
419.099998474121
 30
0.0
  0
VERTEX
  5
B6
330
B2
100
AcDbEntity
  8
2dTransBorder
  6
Continuous
 48
0.0
370
    50
100
AcDbVertex
100
AcDb2dVertex
 10
539.7499847412109
 20
419.099998474121
 30
0.0
  0
VERTEX
  5
B7
330
B2
100
AcDbEntity
  8
2dTransBorder
  6
Continuous
 48
0.0
370
    50
100
AcDbVertex
100
AcDb2dVertex
 10
539.7499847412109
 20
12.69999980926513
 30
0.0
  0
VERTEX
  5
B8
330
B2
100
AcDbEntity
  8
2dTransBorder
  6
Continuous
 48
0.0
370
    50
100
AcDbVertex
100
AcDb2dVertex
 10
19.0499997138977
 20
12.69999980926513
 30
0.0
  0
SEQEND
  5
B5
330
B2
100
AcDbEntity
  8
2dTransBorder
  6
Continuous
 48
0.0
370
    50
  0
POLYLINE
  5
B9
330
AF
100
AcDbEntity
  8
2dTransBorder
  6
Continuous
 48
0.0
370
    50
100
AcDb2dPolyline
 66
     1
 10
0.0
 20
0.0
 30
0.0
  0
VERTEX
  5
BA
330
B9
100
AcDbEntity
  8
2dTransBorder
  6
Continuous
 48
0.0
370
    50
100
AcDbVertex
100
AcDb2dVertex
 10
279.4000053405762
 20
6.349999904632568
 30
0.0
  0
VERTEX
  5
BB
330
B9
100
AcDbEntity
  8
2dTransBorder
  6
Continuous
 48
0.0
370
    50
100
AcDbVertex
100
AcDb2dVertex
 10
279.4000053405762
 20
12.69999980926513
 30
0.0
  0
VERTEX
  5
BD
330
B9
100
AcDbEntity
  8
2dTransBorder
  6
Continuous
 48
0.0
370
    50
100
AcDbVertex
100
AcDb2dVertex
 10
277.2002983093262
 20
8.889999985694885
 30
0.0
  0
VERTEX
  5
BE
330
B9
100
AcDbEntity
  8
2dTransBorder
  6
Continuous
 48
0.0
370
    50
100
AcDbVertex
100
AcDb2dVertex
 10
281.5997123718262
 20
8.889999985694885
 30
0.0
  0
VERTEX
  5
BF
330
B9
100
AcDbEntity
  8
2dTransBorder
  6
Continuous
 48
0.0
370
    50
100
AcDbVertex
100
AcDb2dVertex
 10
279.4000053405762
 20
12.69999980926513
 30
0.0
  0
SEQEND
  5
BC
330
B9
100
AcDbEntity
  8
2dTransBorder
  6
Continuous
 48
0.0
370
    50
  0
POLYLINE
  5
C0
330
AF
100
AcDbEntity
  8
2dTransBorder
  6
Continuous
 48
0.0
370
    50
100
AcDb2dPolyline
 66
     1
 10
0.0
 20
0.0
 30
0.0
  0
VERTEX
  5
C1
330
C0
100
AcDbEntity
  8
2dTransBorder
  6
Continuous
 48
0.0
370
    50
100
AcDbVertex
100
AcDb2dVertex
 10
279.4000053405762
 20
425.4499816894531
 30
0.0
  0
VERTEX
  5
C2
330
C0
100
AcDbEntity
  8
2dTransBorder
  6
Continuous
 48
0.0
370
    50
100
AcDbVertex
100
AcDb2dVertex
 10
279.4000053405762
 20
419.099998474121
 30
0.0
  0
VERTEX
  5
C4
330
C0
100
AcDbEntity
  8
2dTransBorder
  6
Continuous
 48
0.0
370
    50
100
AcDbVertex
100
AcDb2dVertex
 10
277.2002983093262
 20
422.9100036621093
 30
0.0
  0
VERTEX
  5
C5
330
C0
100
AcDbEntity
  8
2dTransBorder
  6
Continuous
 48
0.0
370
    50
100
AcDbVertex
100
AcDb2dVertex
 10
281.5997123718262
 20
422.9100036621093
 30
0.0
  0
VERTEX
  5
C6
330
C0
100
AcDbEntity
  8
2dTransBorder
  6
Continuous
 48
0.0
370
    50
100
AcDbVertex
100
AcDb2dVertex
 10
279.4000053405762
 20
419.099998474121
 30
0.0
  0
SEQEND
  5
C3
330
C0
100
AcDbEntity
  8
2dTransBorder
  6
Continuous
 48
0.0
370
    50
  0
POLYLINE
  5
C7
330
AF
100
AcDbEntity
  8
2dTransBorder
  6
Continuous
 48
0.0
370
    50
100
AcDb2dPolyline
 66
     1
 10
0.0
 20
0.0
 30
0.0
  0
VERTEX
  5
C8
330
C7
100
AcDbEntity
  8
2dTransBorder
  6
Continuous
 48
0.0
370
    50
100
AcDbVertex
100
AcDb2dVertex
 10
12.69999980926513
 20
215.9000015258789
 30
0.0
  0
VERTEX
  5
C9
330
C7
100
AcDbEntity
  8
2dTransBorder
  6
Continuous
 48
0.0
370
    50
100
AcDbVertex
100
AcDb2dVertex
 10
19.0499997138977
 20
215.9000015258789
 30
0.0
  0
VERTEX
  5
CB
330
C7
100
AcDbEntity
  8
2dTransBorder
  6
Continuous
 48
0.0
370
    50
100
AcDbVertex
100
AcDb2dVertex
 10
15.2400004863739
 20
218.0997085571289
 30
0.0
  0
VERTEX
  5
CC
330
C7
100
AcDbEntity
  8
2dTransBorder
  6
Continuous
 48
0.0
370
    50
100
AcDbVertex
100
AcDb2dVertex
 10
15.2400004863739
 20
213.7002944946289
 30
0.0
  0
VERTEX
  5
CD
330
C7
100
AcDbEntity
  8
2dTransBorder
  6
Continuous
 48
0.0
370
    50
100
AcDbVertex
100
AcDb2dVertex
 10
19.0499997138977
 20
215.9000015258789
 30
0.0
  0
SEQEND
  5
CA
330
C7
100
AcDbEntity
  8
2dTransBorder
  6
Continuous
 48
0.0
370
    50
  0
POLYLINE
  5
CE
330
AF
100
AcDbEntity
  8
2dTransBorder
  6
Continuous
 48
0.0
370
    50
100
AcDb2dPolyline
 66
     1
 10
0.0
 20
0.0
 30
0.0
  0
VERTEX
  5
CF
330
CE
100
AcDbEntity
  8
2dTransBorder
  6
Continuous
 48
0.0
370
    50
100
AcDbVertex
100
AcDb2dVertex
 10
546.1000061035156
 20
215.9000015258789
 30
0.0
  0
VERTEX
  5
D0
330
CE
100
AcDbEntity
  8
2dTransBorder
  6
Continuous
 48
0.0
370
    50
100
AcDbVertex
100
AcDb2dVertex
 10
539.7499847412109
 20
215.9000015258789
 30
0.0
  0
VERTEX
  5
D2
330
CE
100
AcDbEntity
  8
2dTransBorder
  6
Continuous
 48
0.0
370
    50
100
AcDbVertex
100
AcDb2dVertex
 10
543.5599899291992
 20
218.0997085571289
 30
0.0
  0
VERTEX
  5
D3
330
CE
100
AcDbEntity
  8
2dTransBorder
  6
Continuous
 48
0.0
370
    50
100
AcDbVertex
100
AcDb2dVertex
 10
543.5599899291992
 20
213.7002944946289
 30
0.0
  0
VERTEX
  5
D4
330
CE
100
AcDbEntity
  8
2dTransBorder
  6
Continuous
 48
0.0
370
    50
100
AcDbVertex
100
AcDb2dVertex
 10
539.7499847412109
 20
215.9000015258789
 30
0.0
  0
SEQEND
  5
D1
330
CE
100
AcDbEntity
  8
2dTransBorder
  6
Continuous
 48
0.0
370
    50
  0
POLYLINE
  5
D5
330
AF
100
AcDbEntity
  8
2dTransBorder
  6
Continuous
 48
0.0
370
    50
100
AcDb2dPolyline
 66
     1
 10
0.0
 20
0.0
 30
0.0
  0
VERTEX
  5
D6
330
D5
100
AcDbEntity
  8
2dTransBorder
  6
Continuous
 48
0.0
370
    50
100
AcDbVertex
100
AcDb2dVertex
 10
139.7000026702881
 20
12.69999980926513
 30
0.0
  0
VERTEX
  5
D7
330
D5
100
AcDbEntity
  8
2dTransBorder
  6
Continuous
 48
0.0
370
    50
100
AcDbVertex
100
AcDb2dVertex
 10
139.7000026702881
 20
8.633999824523925
 30
0.0
  0
SEQEND
  5
D8
330
D5
100
AcDbEntity
  8
2dTransBorder
  6
Continuous
 48
0.0
370
    50
  0
POLYLINE
  5
D9
330
AF
100
AcDbEntity
  8
2dTransBorder
  6
Continuous
 48
0.0
370
    50
100
AcDb2dPolyline
 66
     1
 10
0.0
 20
0.0
 30
0.0
  0
VERTEX
  5
DA
330
D9
100
AcDbEntity
  8
2dTransBorder
  6
Continuous
 48
0.0
370
    50
100
AcDbVertex
100
AcDb2dVertex
 10
139.7000026702881
 20
419.099998474121
 30
0.0
  0
VERTEX
  5
DB
330
D9
100
AcDbEntity
  8
2dTransBorder
  6
Continuous
 48
0.0
370
    50
100
AcDbVertex
100
AcDb2dVertex
 10
139.7000026702881
 20
423.1660079956054
 30
0.0
  0
SEQEND
  5
DC
330
D9
100
AcDbEntity
  8
2dTransBorder
  6
Continuous
 48
0.0
370
    50
  0
POLYLINE
  5
DD
330
AF
100
AcDbEntity
  8
2dTransBorder
  6
Continuous
 48
0.0
370
    50
100
AcDb2dPolyline
 66
     1
 10
0.0
 20
0.0
 30
0.0
  0
VERTEX
  5
DE
330
DD
100
AcDbEntity
  8
2dTransBorder
  6
Continuous
 48
0.0
370
    50
100
AcDbVertex
100
AcDb2dVertex
 10
419.099998474121
 20
12.69999980926513
 30
0.0
  0
VERTEX
  5
DF
330
DD
100
AcDbEntity
  8
2dTransBorder
  6
Continuous
 48
0.0
370
    50
100
AcDbVertex
100
AcDb2dVertex
 10
419.099998474121
 20
8.633999824523925
 30
0.0
  0
SEQEND
  5
E0
330
DD
100
AcDbEntity
  8
2dTransBorder
  6
Continuous
 48
0.0
370
    50
  0
POLYLINE
  5
E1
330
AF
100
AcDbEntity
  8
2dTransBorder
  6
Continuous
 48
0.0
370
    50
100
AcDb2dPolyline
 66
     1
 10
0.0
 20
0.0
 30
0.0
  0
VERTEX
  5
E2
330
E1
100
AcDbEntity
  8
2dTransBorder
  6
Continuous
 48
0.0
370
    50
100
AcDbVertex
100
AcDb2dVertex
 10
419.099998474121
 20
419.099998474121
 30
0.0
  0
VERTEX
  5
E3
330
E1
100
AcDbEntity
  8
2dTransBorder
  6
Continuous
 48
0.0
370
    50
100
AcDbVertex
100
AcDb2dVertex
 10
419.099998474121
 20
423.1660079956054
 30
0.0
  0
SEQEND
  5
E4
330
E1
100
AcDbEntity
  8
2dTransBorder
  6
Continuous
 48
0.0
370
    50
  0
MTEXT
  5
E5
330
AF
100
AcDbEntity
  8
2dTransBorder
  6
Continuous
 48
0.0
370
    50
100
AcDbMText
 10
487.8062499731779
 20
420.1159999999999
 30
0.0
 40
3.050000071525573
 41
0.0
 71
     7
 72
     1
  1
1
  7
Text Style12
 73
     1
 44
1.0
1001
ACAD
1000
MTEXTBEGIN
1070
    73
1070
     1
1070
    44
1040
1.0
1070
    74
1070
     0
1000
MTEXTEND
  0
MTEXT
  5
E7
330
AF
100
AcDbEntity
  8
2dTransBorder
  6
Continuous
 48
0.0
370
    50
100
AcDbMText
 10
487.8062499731779
 20
8.633999928474425
 30
0.0
 40
3.050000071525573
 41
0.0
 71
     7
 72
     1
  1
1
  7
Text Style12
 73
     1
 44
1.0
1001
ACAD
1000
MTEXTBEGIN
1070
    73
1070
     1
1070
    44
1040
1.0
1070
    74
1070
     0
1000
MTEXTEND
  0
MTEXT
  5
E8
330
AF
100
AcDbEntity
  8
2dTransBorder
  6
Continuous
 48
0.0
370
    50
100
AcDbMText
 10
348.106249973178
 20
420.1159999999999
 30
0.0
 40
3.050000071525573
 41
0.0
 71
     7
 72
     1
  1
2
  7
Text Style12
 73
     1
 44
1.0
1001
ACAD
1000
MTEXTBEGIN
1070
    73
1070
     1
1070
    44
1040
1.0
1070
    74
1070
     0
1000
MTEXTEND
  0
MTEXT
  5
E9
330
AF
100
AcDbEntity
  8
2dTransBorder
  6
Continuous
 48
0.0
370
    50
100
AcDbMText
 10
348.106249973178
 20
8.633999928474425
 30
0.0
 40
3.050000071525573
 41
0.0
 71
     7
 72
     1
  1
2
  7
Text Style12
 73
     1
 44
1.0
1001
ACAD
1000
MTEXTBEGIN
1070
    73
1070
     1
1070
    44
1040
1.0
1070
    74
1070
     0
1000
MTEXTEND
  0
MTEXT
  5
EA
330
AF
100
AcDbEntity
  8
2dTransBorder
  6
Continuous
 48
0.0
370
    50
100
AcDbMText
 10
208.406249973178
 20
420.1159999999999
 30
0.0
 40
3.050000071525573
 41
0.0
 71
     7
 72
     1
  1
3
  7
Text Style12
 73
     1
 44
1.0
1001
ACAD
1000
MTEXTBEGIN
1070
    73
1070
     1
1070
    44
1040
1.0
1070
    74
1070
     0
1000
MTEXTEND
  0
MTEXT
  5
EB
330
AF
100
AcDbEntity
  8
2dTransBorder
  6
Continuous
 48
0.0
370
    50
100
AcDbMText
 10
208.406249973178
 20
8.633999928474425
 30
0.0
 40
3.050000071525573
 41
0.0
 71
     7
 72
     1
  1
3
  7
Text Style12
 73
     1
 44
1.0
1001
ACAD
1000
MTEXTBEGIN
1070
    73
1070
     1
1070
    44
1040
1.0
1070
    74
1070
     0
1000
MTEXTEND
  0
MTEXT
  5
EC
330
AF
100
AcDbEntity
  8
2dTransBorder
  6
Continuous
 48
0.0
370
    50
100
AcDbMText
 10
68.70624997317796
 20
420.1159999999999
 30
0.0
 40
3.050000071525573
 41
0.0
 71
     7
 72
     1
  1
4
  7
Text Style12
 73
     1
 44
1.0
1001
ACAD
1000
MTEXTBEGIN
1070
    73
1070
     1
1070
    44
1040
1.0
1070
    74
1070
     0
1000
MTEXTEND
  0
MTEXT
  5
ED
330
AF
100
AcDbEntity
  8
2dTransBorder
  6
Continuous
 48
0.0
370
    50
100
AcDbMText
 10
68.70624997317796
 20
8.633999928474427
 30
0.0
 40
3.050000071525573
 41
0.0
 71
     7
 72
     1
  1
4
  7
Text Style12
 73
     1
 44
1.0
1001
ACAD
1000
MTEXTBEGIN
1070
    73
1070
     1
1070
    44
1040
1.0
1070
    74
1070
     0
1000
MTEXTEND
  0
POLYLINE
  5
EE
330
AF
100
AcDbEntity
  8
2dTransBorder
  6
Continuous
 48
0.0
370
    50
100
AcDb2dPolyline
 66
     1
 10
0.0
 20
0.0
 30
0.0
  0
VERTEX
  5
EF
330
EE
100
AcDbEntity
  8
2dTransBorder
  6
Continuous
 48
0.0
370
    50
100
AcDbVertex
100
AcDb2dVertex
 10
19.0499997138977
 20
107.9500007629394
 30
0.0
  0
VERTEX
  5
F0
330
EE
100
AcDbEntity
  8
2dTransBorder
  6
Continuous
 48
0.0
370
    50
100
AcDbVertex
100
AcDb2dVertex
 10
14.98399972915649
 20
107.9500007629394
 30
0.0
  0
SEQEND
  5
F1
330
EE
100
AcDbEntity
  8
2dTransBorder
  6
Continuous
 48
0.0
370
    50
  0
POLYLINE
  5
F2
330
AF
100
AcDbEntity
  8
2dTransBorder
  6
Continuous
 48
0.0
370
    50
100
AcDb2dPolyline
 66
     1
 10
0.0
 20
0.0
 30
0.0
  0
VERTEX
  5
F3
330
F2
100
AcDbEntity
  8
2dTransBorder
  6
Continuous
 48
0.0
370
    50
100
AcDbVertex
100
AcDb2dVertex
 10
539.7499847412109
 20
107.9500007629394
 30
0.0
  0
VERTEX
  5
F4
330
F2
100
AcDbEntity
  8
2dTransBorder
  6
Continuous
 48
0.0
370
    50
100
AcDbVertex
100
AcDb2dVertex
 10
543.8159942626953
 20
107.9500007629394
 30
0.0
  0
SEQEND
  5
F5
330
F2
100
AcDbEntity
  8
2dTransBorder
  6
Continuous
 48
0.0
370
    50
  0
POLYLINE
  5
F6
330
AF
100
AcDbEntity
  8
2dTransBorder
  6
Continuous
 48
0.0
370
    50
100
AcDb2dPolyline
 66
     1
 10
0.0
 20
0.0
 30
0.0
  0
VERTEX
  5
F7
330
F6
100
AcDbEntity
  8
2dTransBorder
  6
Continuous
 48
0.0
370
    50
100
AcDbVertex
100
AcDb2dVertex
 10
19.0499997138977
 20
323.849983215332
 30
0.0
  0
VERTEX
  5
F8
330
F6
100
AcDbEntity
  8
2dTransBorder
  6
Continuous
 48
0.0
370
    50
100
AcDbVertex
100
AcDb2dVertex
 10
14.98399972915649
 20
323.849983215332
 30
0.0
  0
SEQEND
  5
F9
330
F6
100
AcDbEntity
  8
2dTransBorder
  6
Continuous
 48
0.0
370
    50
  0
POLYLINE
  5
FA
330
AF
100
AcDbEntity
  8
2dTransBorder
  6
Continuous
 48
0.0
370
    50
100
AcDb2dPolyline
 66
     1
 10
0.0
 20
0.0
 30
0.0
  0
VERTEX
  5
FB
330
FA
100
AcDbEntity
  8
2dTransBorder
  6
Continuous
 48
0.0
370
    50
100
AcDbVertex
100
AcDb2dVertex
 10
539.7499847412109
 20
323.849983215332
 30
0.0
  0
VERTEX
  5
FC
330
FA
100
AcDbEntity
  8
2dTransBorder
  6
Continuous
 48
0.0
370
    50
100
AcDbVertex
100
AcDb2dVertex
 10
543.8159942626953
 20
323.849983215332
 30
0.0
  0
SEQEND
  5
FD
330
FA
100
AcDbEntity
  8
2dTransBorder
  6
Continuous
 48
0.0
370
    50
  0
MTEXT
  5
FE
330
AF
100
AcDbEntity
  8
2dTransBorder
  6
Continuous
 48
0.0
370
    50
100
AcDbMText
 10
15.36524993741512
 20
52.44999996423722
 30
0.0
 40
3.050000071525573
 41
0.0
 71
     7
 72
     1
  1
A
  7
Text Style12
 73
     1
 44
1.0
1001
ACAD
1000
MTEXTBEGIN
1070
    73
1070
     1
1070
    44
1040
1.0
1070
    74
1070
     0
1000
MTEXTEND
  0
MTEXT
  5
FF
330
AF
100
AcDbEntity
  8
2dTransBorder
  6
Continuous
 48
0.0
370
    50
100
AcDbMText
 10
541.1472500089407
 20
52.44999996423722
 30
0.0
 40
3.050000071525573
 41
0.0
 71
     7
 72
     1
  1
A
  7
Text Style12
 73
     1
 44
1.0
1001
ACAD
1000
MTEXTBEGIN
1070
    73
1070
     1
1070
    44
1040
1.0
1070
    74
1070
     0
1000
MTEXTEND
  0
MTEXT
  5
100
330
AF
100
AcDbEntity
  8
2dTransBorder
  6
Continuous
 48
0.0
370
    50
100
AcDbMText
 10
15.36524993741512
 20
160.3999999642372
 30
0.0
 40
3.050000071525573
 41
0.0
 71
     7
 72
     1
  1
B
  7
Text Style12
 73
     1
 44
1.0
1001
ACAD
1000
MTEXTBEGIN
1070
    73
1070
     1
1070
    44
1040
1.0
1070
    74
1070
     0
1000
MTEXTEND
  0
MTEXT
  5
101
330
AF
100
AcDbEntity
  8
2dTransBorder
  6
Continuous
 62
   178
 48
0.0
370
    50
100
AcDbMText
 10
541.1472500089407
 20
160.3999999642372
 30
0.0
 40
3.050000071525573
 41
0.0
 71
     7
 72
     1
  1
B
  7
Text Style12
 73
     1
 44
1.0
1001
ACAD
1000
MTEXTBEGIN
1070
    73
1070
     1
1070
    44
1040
1.0
1070
    74
1070
     0
1000
MTEXTEND
  0
MTEXT
  5
102
330
AF
100
AcDbEntity
  8
2dTransBorder
  6
Continuous
 62
    18
 48
0.0
370
    50
100
AcDbMText
 10
15.36524993741512
 20
268.3499999642372
 30
0.0
 40
3.050000071525573
 41
0.0
 71
     7
 72
     1
  1
C
  7
Text Style12
 73
     1
 44
1.0
1001
ACAD
1000
MTEXTBEGIN
1070
    73
1070
     1
1070
    44
1040
1.0
1070
    74
1070
     0
1000
MTEXTEND
  0
MTEXT
  5
103
330
AF
100
AcDbEntity
  8
2dTransBorder
  6
Continuous
 62
   178
 48
0.0
370
    50
100
AcDbMText
 10
541.1472500089407
 20
268.3499999642372
 30
0.0
 40
3.050000071525573
 41
0.0
 71
     7
 72
     1
  1
C
  7
Text Style12
 73
     1
 44
1.0
1001
ACAD
1000
MTEXTBEGIN
1070
    73
1070
     1
1070
    44
1040
1.0
1070
    74
1070
     0
1000
MTEXTEND
  0
MTEXT
  5
104
330
AF
100
AcDbEntity
  8
2dTransBorder
  6
Continuous
 48
0.0
370
    50
100
AcDbMText
 10
15.36524993741512
 20
376.2999999642372
 30
0.0
 40
3.050000071525573
 41
0.0
 71
     7
 72
     1
  1
D
  7
Text Style12
 73
     1
 44
1.0
1001
ACAD
1000
MTEXTBEGIN
1070
    73
1070
     1
1070
    44
1040
1.0
1070
    74
1070
     0
1000
MTEXTEND
  0
MTEXT
  5
105
330
AF
100
AcDbEntity
  8
2dTransBorder
  6
Continuous
 48
0.0
370
    50
100
AcDbMText
 10
541.1472500089407
 20
376.2999999642372
 30
0.0
 40
3.050000071525573
 41
0.0
 71
     7
 72
     1
  1
D
  7
Text Style12
 73
     1
 44
1.0
1001
ACAD
1000
MTEXTBEGIN
1070
    73
1070
     1
1070
    44
1040
1.0
1070
    74
1070
     0
1000
MTEXTEND
  0
ENDBLK
  5
B1
330
AF
100
AcDbEntity
  8
0
100
AcDbBlockEnd
  0
BLOCK
  5
109
330
108
100
AcDbEntity
  8
0
100
AcDbBlockBegin
  2
Title Blocks ANSI - Large
 70
     2
 10
225.298255
 20
158.75031875
 30
0.0
  3
Title Blocks ANSI - Large
  1

  0
LINE
  5
10B
330
108
100
AcDbEntity
  8
2dTransTitleBlock
 48
0.0
370
    50
100
AcDbLine
 10
127.000255
 20
190.5003825
 30
0.0
 11
127.000255
 21
127.000255
 31
0.0
  0
LINE
  5
10C
330
108
100
AcDbEntity
  8
2dTransTitleBlock
 48
0.0
370
    50
100
AcDbLine
 10
127.000255
 20
127.000255
 30
0.0
 11
323.596255
 21
127.000255
 31
0.0
  0
LINE
  5
10D
330
108
100
AcDbEntity
  8
2dTransTitleBlock
 48
0.0
370
    50
100
AcDbLine
 10
323.596255
 20
127.000255
 30
0.0
 11
323.596255
 21
190.5003825
 31
0.0
  0
LINE
  5
10E
330
108
100
AcDbEntity
  8
2dTransTitleBlock
 48
0.0
370
    50
100
AcDbLine
 10
323.596255
 20
190.5003825
 30
0.0
 11
127.000255
 21
190.5003825
 31
0.0
  0
LINE
  5
10F
330
108
100
AcDbEntity
  8
2dTransTitleBlock
 48
0.0
370
    50
100
AcDbLine
 10
196.0486588236159
 20
127.000255
 30
0.0
 11
196.0486588236159
 21
190.5003825
 31
0.0
  0
LINE
  5
110
330
108
100
AcDbEntity
  8
2dTransTitleBlock
 48
0.0
370
    50
100
AcDbLine
 10
196.0486588236159
 20
174.75235088
 30
0.0
 11
323.596255
 21
174.75235088
 31
0.0
  0
LINE
  5
111
330
108
100
AcDbEntity
  8
2dTransTitleBlock
 48
0.0
370
    50
100
AcDbLine
 10
323.596255
 20
146.05029325
 30
0.0
 11
196.0486588236159
 21
146.05029325
 31
0.0
  0
LINE
  5
112
330
108
100
AcDbEntity
  8
2dTransTitleBlock
  6
Continuous
 48
0.0
370
    50
100
AcDbLine
 10
323.596255
 20
133.3502677500001
 30
0.0
 11
196.0486588236159
 21
133.35026775
 31
0.0
  0
LINE
  5
113
330
108
100
AcDbEntity
  8
2dTransTitleBlock
  6
Continuous
 48
0.0
370
    50
100
AcDbLine
 10
196.0486588236159
 20
133.35026775
 30
0.0
 11
127.000255
 21
133.35026775
 31
0.0
  0
LINE
  5
114
330
108
100
AcDbEntity
  8
2dTransTitleBlock
  6
Continuous
 48
0.0
370
    50
100
AcDbLine
 10
207.2995976782074
 20
133.35026775
 30
0.0
 11
207.2995976782074
 21
146.05029325
 31
0.0
  0
LINE
  5
115
330
108
100
AcDbEntity
  8
2dTransTitleBlock
  6
Continuous
 48
0.0
370
    50
100
AcDbLine
 10
225.29845237
 20
133.35026775
 30
0.0
 11
225.29845237
 21
127.000255
 31
0.0
  0
LINE
  5
116
330
108
100
AcDbEntity
  8
2dTransTitleBlock
  6
Continuous
 48
0.0
370
    50
100
AcDbLine
 10
231.64846512
 20
133.35026775
 30
0.0
 11
231.64846512
 21
146.05029325
 31
0.0
  0
LINE
  5
117
330
108
100
AcDbEntity
  8
2dTransTitleBlock
  6
Continuous
 48
0.0
370
    50
100
AcDbLine
 10
271.01854417
 20
133.35026775
 30
0.0
 11
271.01854417
 21
127.000255
 31
0.0
  0
LINE
  5
118
330
108
100
AcDbEntity
  8
2dTransTitleBlock
  6
Continuous
 48
0.0
370
    50
100
AcDbLine
 10
307.84861812
 20
133.35026775
 30
0.0
 11
307.84861812
 21
146.05029325
 31
0.0
  0
LINE
  5
119
330
108
100
AcDbEntity
  8
2dTransTitleBlock
  6
Continuous
 48
0.0
370
    50
100
AcDbLine
 10
171.45034425
 20
127.000255
 30
0.0
 11
171.45034425
 21
190.5003825
 31
0.0
  0
LINE
  5
11A
330
108
100
AcDbEntity
  8
2dTransTitleBlock
  6
Continuous
 48
0.0
370
    50
100
AcDbLine
 10
127.000255
 20
142.875286875
 30
0.0
 11
196.0486588236159
 21
142.875286875
 31
0.0
  0
LINE
  5
11B
330
108
100
AcDbEntity
  8
2dTransTitleBlock
  6
Continuous
 48
0.0
370
    50
100
AcDbLine
 10
127.000255
 20
152.400306
 30
0.0
 11
196.0486588236159
 21
152.400306
 31
0.0
  0
LINE
  5
11C
330
108
100
AcDbEntity
  8
2dTransTitleBlock
  6
Continuous
 48
0.0
370
    50
100
AcDbLine
 10
127.000255
 20
161.925325125
 30
0.0
 11
196.0486588236159
 21
161.925325125
 31
0.0
  0
LINE
  5
11D
330
108
100
AcDbEntity
  8
2dTransTitleBlock
  6
Continuous
 48
0.0
370
    50
100
AcDbLine
 10
127.000255
 20
171.45034425
 30
0.0
 11
196.0486588236159
 21
171.45034425
 31
0.0
  0
LINE
  5
11E
330
108
100
AcDbEntity
  8
2dTransTitleBlock
  6
Continuous
 48
0.0
370
    50
100
AcDbLine
 10
127.000255
 20
180.975363375
 30
0.0
 11
196.0486588236159
 21
180.975363375
 31
0.0
  0
MTEXT
  5
11F
330
108
100
AcDbEntity
  8
2dTransTitleBlock
370
     5
100
AcDbMText
 10
196.9417189601734
 20
173.9584490549892
 30
0.0
 40
2.540000081062316
 41
9.662454724311828
 71
     1
 72
     1
  1
\fArial|b0|i0;\W1.00;\H2.5400;\lTITLE
  7
Current-ANSI
 73
     2
 44
0.7831141948699952
1001
ACAD
1000
MTEXTBEGIN
1070
    73
1070
     2
1070
    44
1040
0.7831141948699952
1070
    74
1070
     0
1000
MTEXTEND
  0
MTEXT
  5
120
330
108
100
AcDbEntity
  8
2dTransTitleBlock
370
     5
100
AcDbMText
 10
202.0023041465527
 20
145.3246016202697
 30
0.0
 40
2.540000081062316
 41
7.889100909233093
 71
     2
 72
     1
  1
\fArial|b0|i0;\W1.00;\H2.5400;\lSIZE
  7
Current-ANSI
 73
     2
 44
0.7831141948699952
1001
ACAD
1000
MTEXTBEGIN
1070
    73
1070
     2
1070
    44
1040
0.7831141948699952
1070
    74
1070
     0
1000
MTEXTEND
  0
MTEXT
  5
121
330
108
100
AcDbEntity
  8
2dTransTitleBlock
370
     5
100
AcDbMText
 10
232.3602786215266
 20
145.3921472651283
 30
0.0
 40
2.540000081062316
 41
14.98251676559448
 71
     1
 72
     1
  1
\fArial|b0|i0;\W1.00;\H2.5400;\lDWG NO
  7
Current-ANSI
 73
     2
 44
0.7831141948699952
1001
ACAD
1000
MTEXTBEGIN
1070
    73
1070
     2
1070
    44
1040
0.7831141948699952
1070
    74
1070
     0
1000
MTEXTEND
  0
MTEXT
  5
122
330
108
100
AcDbEntity
  8
2dTransTitleBlock
370
     5
100
AcDbMText
 10
315.4580720161222
 20
145.4539351538367
 30
0.0
 40
2.540000081062316
 41
7.298628687858581
 71
     2
 72
     1
  1
\fArial|b0|i0;\W1.00;\H2.5400;\lREV
  7
Current-ANSI
 73
     2
 44
0.7831141948699952
1001
ACAD
1000
MTEXTBEGIN
1070
    73
1070
     2
1070
    44
1040
0.7831141948699952
1070
    74
1070
     0
1000
MTEXTEND
  0
MTEXT
  5
123
330
108
100
AcDbEntity
  8
2dTransTitleBlock
370
     5
100
AcDbMText
 10
196.4325766810957
 20
130.3866512398336
 30
0.0
 40
2.540000081062316
 41
11.6390860080719
 71
     7
 72
     1
  1
\fArial|b0|i0;\W1.00;\H2.5400;\lSCALE
  7
Current-ANSI
 73
     2
 44
0.7831141948699952
1001
ACAD
1000
MTEXTBEGIN
1070
    73
1070
     2
1070
    44
1040
0.7831141948699952
1070
    74
1070
     0
1000
MTEXTEND
  0
MTEXT
  5
124
330
108
100
AcDbEntity
  8
2dTransTitleBlock
370
     5
100
AcDbMText
 10
271.5
 20
128.0
 30
0.0
 40
2.540000081062316
 41
11.83462023735046
 71
     7
 72
     1
  1
\fArial|b0|i0;\W1.00;\H2.5400;\lSHEET
  7
Current-ANSI
 73
     2
 44
0.7831141948699952
1001
ACAD
1000
MTEXTBEGIN
1070
    73
1070
     2
1070
    44
1040
0.7831141948699952
1070
    74
1070
     0
1000
MTEXTEND
  0
MTEXT
  5
125
330
108
100
AcDbEntity
  8
2dTransTitleBlock
370
     5
100
AcDbMText
 10
300.0
 20
128.0
 30
0.0
 40
2.540000081062316
 41
4.928994178771972
 71
     7
 72
     1
  1
\fArial|b0|i0;\W1.00;\H2.5400;\lOF
  7
Current-ANSI
 73
     2
 44
0.7831141948699952
1001
ACAD
1000
MTEXTBEGIN
1070
    73
1070
     2
1070
    44
1040
0.7831141948699952
1070
    74
1070
     0
1000
MTEXTEND
  0
MTEXT
  5
126
330
108
100
AcDbEntity
  8
2dTransTitleBlock
370
     5
100
AcDbMText
 10
127.38162851784
 20
190.0
 30
0.0
 40
2.540000081062316
 41
13.40663194656372
 71
     1
 72
     1
  1
\fArial|b0|i0;\W1.00;\H2.5400;\lDRAWN
  7
Current-ANSI
 73
     2
 44
0.7831141948699952
1001
ACAD
1000
MTEXTBEGIN
1070
    73
1070
     2
1070
    44
1040
0.7831141948699952
1070
    74
1070
     0
1000
MTEXTEND
  0
MTEXT
  5
127
330
108
100
AcDbEntity
  8
2dTransTitleBlock
370
     5
100
AcDbMText
 10
127.38162851784
 20
180.5
 30
0.0
 40
2.540000081062316
 41
17.35602259635925
 71
     1
 72
     1
  1
\fArial|b0|i0;\W1.00;\H2.5400;\lCHECKED
  7
Current-ANSI
 73
     2
 44
0.7831141948699952
1001
ACAD
1000
MTEXTBEGIN
1070
    73
1070
     2
1070
    44
1040
0.7831141948699952
1070
    74
1070
     0
1000
MTEXTEND
  0
MTEXT
  5
128
330
108
100
AcDbEntity
  8
2dTransTitleBlock
370
     5
100
AcDbMText
 10
128.1416113120312
 20
170.9631371465121
 30
0.0
 40
2.540000081062316
 41
0.0
 71
     1
 72
     1
  1
\fArial|b0|i0;\W1.00;\H2.5400;\lQA
  7
Current-ANSI
 73
     2
 44
0.7831141948699952
1001
ACAD
1000
MTEXTBEGIN
1070
    73
1070
     2
1070
    44
1040
0.7831141948699952
1070
    74
1070
     0
1000
MTEXTEND
  0
MTEXT
  5
129
330
108
100
AcDbEntity
  8
2dTransTitleBlock
370
     5
100
AcDbMText
 10
127.7706480615607
 20
161.2396507053429
 30
0.0
 40
2.540000081062316
 41
0.0
 71
     1
 72
     1
  1
\fArial|b0|i0;\W1.00;\H2.5400;\lMFG
  7
Current-ANSI
 73
     2
 44
0.7831141948699952
1001
ACAD
1000
MTEXTBEGIN
1070
    73
1070
     2
1070
    44
1040
0.7831141948699952
1070
    74
1070
     0
1000
MTEXTEND
  0
MTEXT
  5
12A
330
108
100
AcDbEntity
  8
2dTransTitleBlock
370
     5
100
AcDbMText
 10
127.8982296048435
 20
151.6084015690024
 30
0.0
 40
2.540000081062316
 41
0.0
 71
     1
 72
     1
  1
\fArial|b0|i0;\W1.00;\H2.5400;\lAPPROVED
  7
Current-ANSI
 73
     2
 44
0.7831141948699952
1001
ACAD
1000
MTEXTBEGIN
1070
    73
1070
     2
1070
    44
1040
0.7831141948699952
1070
    74
1070
     0
1000
MTEXTEND
  0
ATTDEF
  5
12B
330
108
100
AcDbEntity
  8
2dTransTitleBlock
100
AcDbText
 10
197.7467733702573
 20
154.4257041150555
 30
0.0
 40
4.775199890136718
  1

  7
Current-ANSI
 11
197.7467733702573
 21
156.8133040601238
 31
0.0
100
AcDbAttributeDefinition
  3
TITLE
  2
TITLE
 70
     0
 74
     2
  0
ATTDEF
  5
12C
330
108
100
AcDbEntity
  8
2dTransTitleBlock
100
AcDbText
 10
232.9255022532487
 20
135.4175841865015
 30
0.0
 40
4.775199890136718
  1
20000c_brace
  7
Current-ANSI
 11
232.9255022532487
 21
134.0039165519044
 31
0.0
100
AcDbAttributeDefinition
  3
PART NUMBER
  2
PART_NUMBER
 70
     0
 74
     1
  0
ATTDEF
  5
12D
330
108
100
AcDbEntity
  8
2dTransTitleBlock
100
AcDbText
 10
289.9582428122975
 20
129.0589835613308
 30
0.0
 40
3.174999952316284
  1
1 
  7
Current-ANSI
 72
     1
 11
291.8077994011639
 21
128.1190449669889
 31
0.0
100
AcDbAttributeDefinition
  3
Sheet number
  2
Sheet_number
 70
     0
 74
     1
  0
ATTDEF
  5
12E
330
108
100
AcDbEntity
  8
2dTransTitleBlock
100
AcDbText
 10
308.916898101238
 20
128.9399385943419
 30
0.0
 40
3.174999952316284
  1
1 
  7
Current-ANSI
 11
308.916898101238
 21
128.0
 31
0.0
100
AcDbAttributeDefinition
  3
Number of sheets
  2
Number_of_sheets
 70
     0
 74
     1
  0
ATTDEF
  5
12F
330
108
100
AcDbEntity
  8
2dTransTitleBlock
100
AcDbText
 10
315.7222893383261
 20
136.2145153707524
 30
0.0
 40
3.174999952316284
  1

  7
Current-ANSI
 72
     1
 11
315.7222893383261
 21
137.8020153469105
 31
0.0
100
AcDbAttributeDefinition
  3
REVISION NUMBER
  2
REVISION_NUMBER
 70
     0
 74
     2
  0
ATTDEF
  5
130
330
108
100
AcDbEntity
  8
2dTransTitleBlock
100
AcDbText
 10
199.5379150959232
 20
135.1124000549316
 30
0.0
 40
4.775199890136718
  1
C
  7
Current-ANSI
 72
     1
 11
201.9466874825235
 21
137.5
 31
0.0
100
AcDbAttributeDefinition
  3
Sheet Size
  2
Sheet_Size
 70
     0
 74
     2
  0
ATTDEF
  5
131
330
108
100
AcDbEntity
  8
2dTransTitleBlock
100
AcDbText
 10
259.8621535957465
 20
180.884717654784
 30
0.0
 40
3.174999952316284
  1

  7
Current-ANSI
 72
     1
 11
259.8621535957465
 21
182.4722176309421
 31
0.0
100
AcDbAttributeDefinition
  3
COMPANY
  2
COMPANY
 70
     0
 74
     2
  0
ATTDEF
  5
132
330
108
100
AcDbEntity
  8
2dTransTitleBlock
100
AcDbText
 10
127.7995146045161
 20
182.7962532210504
 30
0.0
 40
3.174999952316284
  1
Chuck Warren
  7
Current-ANSI
 11
127.7995146045161
 21
181.8563146267084
 31
0.0
100
AcDbAttributeDefinition
  3
AUTHOR
  2
AUTHOR
 70
     0
 74
     1
  0
ATTDEF
  5
133
330
108
100
AcDbEntity
  8
2dTransTitleBlock
100
AcDbText
 10
172.0074821581669
 20
182.4261625025414
 30
0.0
 40
3.174999952316284
  1
6/4/2006
  7
Current-ANSI
 11
172.0074821581669
 21
181.4862239081995
 31
0.0
100
AcDbAttributeDefinition
  3
CREATION DATE
  2
CREATION_DATE
 70
     0
 74
     1
  0
ATTDEF
  5
134
330
108
100
AcDbEntity
  8
2dTransTitleBlock
100
AcDbText
 10
127.6320614557839
 20
172.7701260269904
 30
0.0
 40
3.174999952316284
  1

  7
Current-ANSI
 11
127.6320614557839
 21
171.8301874326485
 31
0.0
100
AcDbAttributeDefinition
  3
CHECKED BY
  2
CHECKED_BY
 70
     0
 74
     1
  0
ATTDEF
  5
135
330
108
100
AcDbEntity
  8
2dTransTitleBlock
100
AcDbText
 10
172.0074821581668
 20
173.0684228862922
 30
0.0
 40
3.174999952316284
  1

  7
Current-ANSI
 11
172.0074821581668
 21
172.1284842919503
 31
0.0
100
AcDbAttributeDefinition
  3
CHECKED DATE
  2
CHECKED_DATE
 70
     0
 74
     1
  0
ATTDEF
  5
136
330
108
100
AcDbEntity
  8
2dTransTitleBlock
100
AcDbText
 10
127.7649967396263
 20
144.1736090188208
 30
0.0
 40
3.174999952316284
  1

  7
Current-ANSI
 11
127.7649967396263
 21
143.2336704244789
 31
0.0
100
AcDbAttributeDefinition
  3
ENG APPROVED BY
  2
ENG_APPROVED_BY
 70
     0
 74
     1
  0
ATTDEF
  5
137
330
108
100
AcDbEntity
  8
2dTransTitleBlock
100
AcDbText
 10
172.0074821581669
 20
144.1594217920871
 30
0.0
 40
3.174999952316284
  1

  7
Current-ANSI
 11
172.0074821581669
 21
143.2194831977452
 31
0.0
100
AcDbAttributeDefinition
  3
ENG APPROVAL DATE
  2
ENG_APPROVAL_DATE
 70
     0
 74
     1
  0
ATTDEF
  5
138
330
108
100
AcDbEntity
  8
2dTransTitleBlock
100
AcDbText
 10
127.7336624243035
 20
153.7959831856672
 30
0.0
 40
3.174999952316284
  1

  7
Current-ANSI
 11
127.7336624243035
 21
152.8560445913253
 31
0.0
100
AcDbAttributeDefinition
  3
MFG APPROVED BY
  2
MFG_APPROVED_BY
 70
     0
 74
     1
  0
ATTDEF
  5
139
330
108
100
AcDbEntity
  8
2dTransTitleBlock
100
AcDbText
 10
172.1046822379183
 20
153.7447753996264
 30
0.0
 40
3.174999952316284
  1

  7
Current-ANSI
 11
172.1046822379183
 21
152.8048368052845
 31
0.0
100
AcDbAttributeDefinition
  3
MFG APPROVED DATE
  2
MFG_APPROVED_DATE
 70
     0
 74
     1
  0
ENDBLK
  5
10A
330
108
100
AcDbEntity
  8
0
100
AcDbBlockEnd
  0
BLOCK
  5
15C
330
151
100
AcDbEntity
  8
0
100
AcDbBlockBegin
  2
*D4
 70
     1
 10
0.0
 20
0.0
 30
0.0
  3
*D4
  1

  0
LINE
  5
1E0
330
151
100
AcDbEntity
  8
Dimensions
  6
Continuous
 62
   250
370
    25
100
AcDbLine
 10
1123.835194126263
 20
1398.609834994056
 30
0.0
 11
1123.835194126263
 21
1531.583025281096
 31
0.0
  0
LINE
  5
1E1
330
151
100
AcDbEntity
  8
Dimensions
  6
Continuous
 62
   250
370
    25
100
AcDbLine
 10
1598.835194126263
 20
1398.609834994056
 30
0.0
 11
1598.835194126263
 21
1531.583025281096
 31
0.0
  0
LINE
  5
1E2
330
151
100
AcDbEntity
  8
Dimensions
  6
Continuous
 62
   250
370
    25
100
AcDbLine
 10
1136.335194126263
 20
1515.708025281096
 30
0.0
 11
1306.550794658612
 21
1515.708025281096
 31
0.0
  0
LINE
  5
1E3
330
151
100
AcDbEntity
  8
Dimensions
  6
Continuous
 62
   250
370
    25
100
AcDbLine
 10
1586.335194126263
 20
1515.708025281096
 30
0.0
 11
1388.685127537193
 21
1515.708025281096
 31
0.0
  0
SOLID
  5
1E4
330
151
100
AcDbEntity
  8
Dimensions
  6
Continuous
 62
   250
100
AcDbTrace
 10
1136.335194126263
 20
1517.791358614429
 30
0.0
 11
1136.335194126263
 21
1513.624691947762
 31
0.0
 12
1123.835194126263
 22
1515.708025281096
 32
0.0
 13
1123.835194126263
 23
1515.708025281096
 33
0.0
  0
SOLID
  5
1E5
330
151
100
AcDbEntity
  8
Dimensions
  6
Continuous
 62
   250
100
AcDbTrace
 10
1586.335194126263
 20
1517.791358614429
 30
0.0
 11
1586.335194126263
 21
1513.624691947762
 31
0.0
 12
1598.835194126263
 22
1515.708025281096
 32
0.0
 13
1598.835194126263
 23
1515.708025281096
 33
0.0
  0
MTEXT
  5
1E6
330
151
100
AcDbEntity
  8
Dimensions
  6
Continuous
 62
    18
370
    25
100
AcDbMText
 10
1347.617961097902
 20
1515.708025281096
 30
0.0
 40
25.0
 41
0.0
 71
     5
 72
     1
  1
\A1;47.5
  7
Text Style20
 73
     1
 44
1.0
1001
ACAD
1000
MTEXTBEGIN
1070
    73
1070
     1
1070
    44
1040
1.0
1070
    74
1070
     0
1000
MTEXTEND
  0
POINT
  5
1E7
330
151
100
AcDbEntity
  8
Defpoints
  6
Continuous
 62
     0
100
AcDbPoint
 10
1123.835194126263
 20
1390.672334994056
 30
0.0
  0
POINT
  5
1E8
330
151
100
AcDbEntity
  8
Defpoints
  6
Continuous
 62
     0
100
AcDbPoint
 10
1598.835194126263
 20
1390.672334994056
 30
0.0
  0
POINT
  5
1E9
330
151
100
AcDbEntity
  8
Defpoints
  6
Continuous
 62
     0
100
AcDbPoint
 10
1598.835194126263
 20
1515.708025281096
 30
0.0
  0
ENDBLK
  5
15D
330
151
100
AcDbEntity
  8
0
100
AcDbBlockEnd
  0
BLOCK
  5
1F6
330
1EB
100
AcDbEntity
  8
0
100
AcDbBlockBegin
  2
*D5
 70
     1
 10
0.0
 20
0.0
 30
0.0
  3
*D5
  1

  0
LINE
  5
27A
330
1EB
100
AcDbEntity
  8
Dimensions
  6
Continuous
 62
   250
370
    25
100
AcDbLine
 10
1115.897694126263
 20
1042.672334994056
 30
0.0
 11
988.8121353888903
 21
1042.672334994056
 31
0.0
  0
LINE
  5
27B
330
1EB
100
AcDbEntity
  8
Dimensions
  6
Continuous
 62
   250
370
    25
100
AcDbLine
 10
1115.897694126263
 20
1390.672334994056
 30
0.0
 11
988.8121353888903
 21
1390.672334994056
 31
0.0
  0
LINE
  5
27C
330
1EB
100
AcDbEntity
  8
Dimensions
  6
Continuous
 62
   250
370
    25
100
AcDbLine
 10
1004.68713538889
 20
1055.172334994056
 30
0.0
 11
1004.68713538889
 21
1190.411590298249
 31
0.0
  0
LINE
  5
27D
330
1EB
100
AcDbEntity
  8
Dimensions
  6
Continuous
 62
   250
370
    25
100
AcDbLine
 10
1004.68713538889
 20
1378.172334994056
 30
0.0
 11
1004.68713538889
 21
1231.959292890336
 31
0.0
  0
SOLID
  5
27E
330
1EB
100
AcDbEntity
  8
Dimensions
  6
Continuous
 62
   250
100
AcDbTrace
 10
1002.603802055557
 20
1055.172334994056
 30
0.0
 11
1006.770468722224
 21
1055.172334994056
 31
0.0
 12
1004.68713538889
 22
1042.672334994056
 32
0.0
 13
1004.68713538889
 23
1042.672334994056
 33
0.0
  0
SOLID
  5
27F
330
1EB
100
AcDbEntity
  8
Dimensions
  6
Continuous
 62
   250
100
AcDbTrace
 10
1002.603802055557
 20
1378.172334994056
 30
0.0
 11
1006.770468722224
 21
1378.172334994056
 31
0.0
 12
1004.68713538889
 22
1390.672334994056
 32
0.0
 13
1004.68713538889
 23
1390.672334994056
 33
0.0
  0
MTEXT
  5
280
330
1EB
100
AcDbEntity
  8
Dimensions
  6
Continuous
 62
    18
370
    25
100
AcDbMText
 10
1004.68713538889
 20
1211.185441594293
 30
0.0
 40
25.0
 41
0.0
 71
     5
 72
     1
  1
\A1;34.8
  7
Text Style20
 73
     1
 44
1.0
1001
ACAD
1000
MTEXTBEGIN
1070
    73
1070
     1
1070
    44
1040
1.0
1070
    74
1070
     0
1000
MTEXTEND
  0
POINT
  5
281
330
1EB
100
AcDbEntity
  8
Defpoints
  6
Continuous
 62
     0
100
AcDbPoint
 10
1123.835194126263
 20
1042.672334994056
 30
0.0
  0
POINT
  5
282
330
1EB
100
AcDbEntity
  8
Defpoints
  6
Continuous
 62
     0
100
AcDbPoint
 10
1123.835194126263
 20
1390.672334994056
 30
0.0
  0
POINT
  5
283
330
1EB
100
AcDbEntity
  8
Defpoints
  6
Continuous
 62
     0
100
AcDbPoint
 10
1004.68713538889
 20
1390.672334994056
 30
0.0
  0
ENDBLK
  5
1F7
330
1EB
100
AcDbEntity
  8
0
100
AcDbBlockEnd
  0
BLOCK
  5
291
330
286
100
AcDbEntity
  8
0
100
AcDbBlockBegin
  2
*D6
 70
     1
 10
0.0
 20
0.0
 30
0.0
  3
*D6
  1

  0
LINE
  5
287
330
286
100
AcDbEntity
  8
Dimensions
  6
Continuous
 62
   250
370
    25
100
AcDbLine
 10
112.3835194126263
 20
139.8609834994055
 30
0.0
 11
112.3835194126263
 21
153.1583025281096
 31
0.0
  0
LINE
  5
288
330
286
100
AcDbEntity
  8
Dimensions
  6
Continuous
 62
   250
370
    25
100
AcDbLine
 10
159.8835194126263
 20
139.8609834994055
 30
0.0
 11
159.8835194126263
 21
153.1583025281096
 31
0.0
  0
LINE
  5
289
330
286
100
AcDbEntity
  8
Dimensions
  6
Continuous
 62
   250
370
    25
100
AcDbLine
 10
113.6335194126263
 20
151.5708025281096
 30
0.0
 11
130.6550794658612
 21
151.5708025281096
 31
0.0
  0
LINE
  5
28A
330
286
100
AcDbEntity
  8
Dimensions
  6
Continuous
 62
   250
370
    25
100
AcDbLine
 10
158.6335194126263
 20
151.5708025281096
 30
0.0
 11
138.8685127537193
 21
151.5708025281096
 31
0.0
  0
SOLID
  5
28B
330
286
100
AcDbEntity
  8
Dimensions
  6
Continuous
 62
   250
100
AcDbTrace
 10
113.6335194126263
 20
151.7791358614429
 30
0.0
 11
113.6335194126263
 21
151.3624691947762
 31
0.0
 12
112.3835194126263
 22
151.5708025281096
 32
0.0
 13
112.3835194126263
 23
151.5708025281096
 33
0.0
  0
SOLID
  5
28C
330
286
100
AcDbEntity
  8
Dimensions
  6
Continuous
 62
   250
100
AcDbTrace
 10
158.6335194126263
 20
151.7791358614429
 30
0.0
 11
158.6335194126263
 21
151.3624691947762
 31
0.0
 12
159.8835194126263
 22
151.5708025281096
 32
0.0
 13
159.8835194126263
 23
151.5708025281096
 33
0.0
  0
MTEXT
  5
28D
330
286
100
AcDbEntity
  8
Dimensions
  6
Continuous
 62
    18
370
    25
100
AcDbMText
 10
134.7617961097902
 20
151.5708025281096
 30
0.0
 40
2.5
 41
0.0
 71
     5
 72
     1
  1
\A1;47.5
  7
Text Style20
 73
     1
 44
1.0
1001
ACAD
1000
MTEXTBEGIN
1070
    73
1070
     1
1070
    44
1040
1.0
1070
    74
1070
     0
1000
MTEXTEND
  0
POINT
  5
28E
330
286
100
AcDbEntity
  8
Defpoints
  6
Continuous
 62
     0
100
AcDbPoint
 10
112.3835194126263
 20
139.0672334994055
 30
0.0
  0
POINT
  5
28F
330
286
100
AcDbEntity
  8
Defpoints
  6
Continuous
 62
     0
100
AcDbPoint
 10
159.8835194126263
 20
139.0672334994055
 30
0.0
  0
POINT
  5
290
330
286
100
AcDbEntity
  8
Defpoints
  6
Continuous
 62
     0
100
AcDbPoint
 10
159.8835194126263
 20
151.5708025281096
 30
0.0
  0
ENDBLK
  5
292
330
286
100
AcDbEntity
  8
0
100
AcDbBlockEnd
  0
BLOCK
  5
29E
330
293
100
AcDbEntity
  8
0
100
AcDbBlockBegin
  2
*D7
 70
     1
 10
0.0
 20
0.0
 30
0.0
  3
*D7
  1

  0
LINE
  5
294
330
293
100
AcDbEntity
  8
Dimensions
  6
Continuous
 62
   250
370
    25
100
AcDbLine
 10
111.5897694126263
 20
104.2672334994055
 30
0.0
 11
98.88121353888903
 21
104.2672334994055
 31
0.0
  0
LINE
  5
295
330
293
100
AcDbEntity
  8
Dimensions
  6
Continuous
 62
   250
370
    25
100
AcDbLine
 10
111.5897694126263
 20
139.0672334994055
 30
0.0
 11
98.88121353888903
 21
139.0672334994055
 31
0.0
  0
LINE
  5
296
330
293
100
AcDbEntity
  8
Dimensions
  6
Continuous
 62
   250
370
    25
100
AcDbLine
 10
100.468713538889
 20
105.5172334994055
 30
0.0
 11
100.468713538889
 21
119.0411590298249
 31
0.0
  0
LINE
  5
297
330
293
100
AcDbEntity
  8
Dimensions
  6
Continuous
 62
   250
370
    25
100
AcDbLine
 10
100.468713538889
 20
137.8172334994056
 30
0.0
 11
100.468713538889
 21
123.1959292890336
 31
0.0
  0
SOLID
  5
298
330
293
100
AcDbEntity
  8
Dimensions
  6
Continuous
 62
   250
100
AcDbTrace
 10
100.2603802055557
 20
105.5172334994055
 30
0.0
 11
100.6770468722223
 21
105.5172334994055
 31
0.0
 12
100.468713538889
 22
104.2672334994055
 32
0.0
 13
100.468713538889
 23
104.2672334994055
 33
0.0
  0
SOLID
  5
299
330
293
100
AcDbEntity
  8
Dimensions
  6
Continuous
 62
   250
100
AcDbTrace
 10
100.2603802055557
 20
137.8172334994056
 30
0.0
 11
100.6770468722223
 21
137.8172334994056
 31
0.0
 12
100.468713538889
 22
139.0672334994055
 32
0.0
 13
100.468713538889
 23
139.0672334994055
 33
0.0
  0
MTEXT
  5
29A
330
293
100
AcDbEntity
  8
Dimensions
  6
Continuous
 62
    18
370
    25
100
AcDbMText
 10
100.468713538889
 20
121.1185441594293
 30
0.0
 40
2.5
 41
0.0
 71
     5
 72
     1
  1
\A1;34.8
  7
Text Style20
 73
     1
 44
1.0
1001
ACAD
1000
MTEXTBEGIN
1070
    73
1070
     1
1070
    44
1040
1.0
1070
    74
1070
     0
1000
MTEXTEND
  0
POINT
  5
29B
330
293
100
AcDbEntity
  8
Defpoints
  6
Continuous
 62
     0
100
AcDbPoint
 10
112.3835194126263
 20
104.2672334994055
 30
0.0
  0
POINT
  5
29C
330
293
100
AcDbEntity
  8
Defpoints
  6
Continuous
 62
     0
100
AcDbPoint
 10
112.3835194126263
 20
139.0672334994055
 30
0.0
  0
POINT
  5
29D
330
293
100
AcDbEntity
  8
Defpoints
  6
Continuous
 62
     0
100
AcDbPoint
 10
100.468713538889
 20
139.0672334994055
 30
0.0
  0
ENDBLK
  5
29F
330
293
100
AcDbEntity
  8
0
100
AcDbBlockEnd
  0
ENDSEC
  0
SECTION
  2
ENTITIES
  0
INSERT
  5
106
330
21
100
AcDbEntity
  8
2dTransBorder
100
AcDbBlockReference
  2
Borders Default Border
 10
0.0
 20
0.0
 30
0.0
 41
0.5
 42
0.5
 43
0.5
  0
INSERT
  5
13A
330
21
100
AcDbEntity
  8
2dTransTitleBlock
100
AcDbBlockReference
 66
     1
  2
Title Blocks ANSI - Large
 10
220.726
 20
22.22503187500002
 30
0.0
 41
0.5
 42
0.5
 43
0.5
  0
ATTRIB
  5
13C
330
13A
100
AcDbEntity
  8
2dTransTitleBlock
100
AcDbText
 10
206.9502591851287
 20
20.06272455752773
 30
0.0
 40
2.387599945068359
  1

  7
Current-ANSI
 11
206.9502591851287
 21
21.25652453006191
 31
0.0
100
AcDbAttribute
  2
TITLE
 70
     0
 74
     2
  0
ATTRIB
  5
13D
330
13A
100
AcDbEntity
  8
2dTransTitleBlock
100
AcDbText
 10
224.5396236266244
 20
10.55866459325074
 30
0.0
 40
2.387599945068359
  1
20000c_brace
  7
Current-ANSI
 11
224.5396236266244
 21
9.851830775952201
 31
0.0
100
AcDbAttribute
  2
PART_NUMBER
 70
     0
 74
     1
  0
ATTRIB
  5
13E
330
13A
100
AcDbEntity
  8
2dTransTitleBlock
100
AcDbText
 10
253.0559939061487
 20
7.379364280665436
 30
0.0
 40
1.587499976158142
  1
1 
  7
Current-ANSI
 72
     1
 11
253.9807722005819
 21
6.909394983494472
 31
0.0
100
AcDbAttribute
  2
Sheet_number
 70
     0
 74
     1
  0
ATTRIB
  5
13F
330
13A
100
AcDbEntity
  8
2dTransTitleBlock
100
AcDbText
 10
262.535321550619
 20
7.319841797170953
 30
0.0
 40
1.587499976158142
  1
1 
  7
Current-ANSI
 11
262.535321550619
 21
6.849872499999989
 31
0.0
100
AcDbAttribute
  2
Number_of_sheets
 70
     0
 74
     1
  0
ATTRIB
  5
140
330
13A
100
AcDbEntity
  8
2dTransTitleBlock
100
AcDbText
 10
265.938017169163
 20
10.95713018537621
 30
0.0
 40
1.587499976158142
  1

  7
Current-ANSI
 72
     1
 11
265.938017169163
 21
11.75088017345528
 31
0.0
100
AcDbAttribute
  2
REVISION_NUMBER
 70
     0
 74
     2
  0
ATTRIB
  5
141
330
13A
100
AcDbEntity
  8
2dTransTitleBlock
100
AcDbText
 10
207.8458300479616
 20
10.40607252746582
 30
0.0
 40
2.387599945068359
  1
C
  7
Current-ANSI
 72
     1
 11
209.0502162412618
 21
11.5998725
 31
0.0
100
AcDbAttribute
  2
Sheet_Size
 70
     0
 74
     2
  0
ATTRIB
  5
142
330
13A
100
AcDbEntity
  8
2dTransTitleBlock
100
AcDbText
 10
238.0079492978732
 20
33.29223132739202
 30
0.0
 40
1.587499976158142
  1

  7
Current-ANSI
 72
     1
 11
238.0079492978732
 21
34.08598131547109
 31
0.0
100
AcDbAttribute
  2
COMPANY
 70
     0
 74
     2
  0
ATTRIB
  5
143
330
13A
100
AcDbEntity
  8
2dTransTitleBlock
100
AcDbText
 10
171.976629802258
 20
34.24799911052521
 30
0.0
 40
1.587499976158142
  1
Chuck Warren
  7
Current-ANSI
 11
171.976629802258
 21
33.77802981335424
 31
0.0
100
AcDbAttribute
  2
AUTHOR
 70
     0
 74
     1
  0
ATTRIB
  5
144
330
13A
100
AcDbEntity
  8
2dTransTitleBlock
100
AcDbText
 10
194.0806135790834
 20
34.06295375127073
 30
0.0
 40
1.587499976158142
  1
6/4/2006
  7
Current-ANSI
 11
194.0806135790834
 21
33.59298445409976
 31
0.0
100
AcDbAttribute
  2
CREATION_DATE
 70
     0
 74
     1
  0
ATTRIB
  5
145
330
13A
100
AcDbEntity
  8
2dTransTitleBlock
100
AcDbText
 10
171.8929032278919
 20
29.2349355134952
 30
0.0
 40
1.587499976158142
  1

  7
Current-ANSI
 11
171.8929032278919
 21
28.76496621632423
 31
0.0
100
AcDbAttribute
  2
CHECKED_BY
 70
     0
 74
     1
  0
ATTRIB
  5
146
330
13A
100
AcDbEntity
  8
2dTransTitleBlock
100
AcDbText
 10
194.0806135790834
 20
29.38408394314614
 30
0.0
 40
1.587499976158142
  1

  7
Current-ANSI
 11
194.0806135790834
 21
28.91411464597517
 31
0.0
100
AcDbAttribute
  2
CHECKED_DATE
 70
     0
 74
     1
  0
ATTRIB
  5
147
330
13A
100
AcDbEntity
  8
2dTransTitleBlock
100
AcDbText
 10
171.9593708698131
 20
14.93667700941042
 30
0.0
 40
1.587499976158142
  1

  7
Current-ANSI
 11
171.9593708698131
 21
14.46670771223946
 31
0.0
100
AcDbAttribute
  2
ENG_APPROVED_BY
 70
     0
 74
     1
  0
ATTRIB
  5
148
330
13A
100
AcDbEntity
  8
2dTransTitleBlock
100
AcDbText
 10
194.0806135790834
 20
14.92958339604357
 30
0.0
 40
1.587499976158142
  1

  7
Current-ANSI
 11
194.0806135790834
 21
14.4596140988726
 31
0.0
100
AcDbAttribute
  2
ENG_APPROVAL_DATE
 70
     0
 74
     1
  0
ATTRIB
  5
149
330
13A
100
AcDbEntity
  8
2dTransTitleBlock
100
AcDbText
 10
171.9437037121517
 20
19.74786409283363
 30
0.0
 40
1.587499976158142
  1

  7
Current-ANSI
 11
171.9437037121517
 21
19.27789479566266
 31
0.0
100
AcDbAttribute
  2
MFG_APPROVED_BY
 70
     0
 74
     1
  0
ATTRIB
  5
14A
330
13A
100
AcDbEntity
  8
2dTransTitleBlock
100
AcDbText
 10
194.1292136189592
 20
19.72226019981321
 30
0.0
 40
1.587499976158142
  1

  7
Current-ANSI
 11
194.1292136189592
 21
19.25229090264224
 31
0.0
100
AcDbAttribute
  2
MFG_APPROVED_DATE
 70
     0
 74
     1
  0
SEQEND
  5
13B
330
13A
100
AcDbEntity
  8
2dTransTitleBlock
  0
LINE
  5
14B
330
21
100
AcDbEntity
  8
Visible Edges
  6
Continuous
 48
0.0
370
    50
100
AcDbLine
 10
159.8835194126263
 20
139.0672334994055
 30
0.0
 11
159.8835194126263
 21
104.2672334994055
 31
0.0
  0
LINE
  5
14C
330
21
100
AcDbEntity
  8
Visible Edges
  6
Continuous
 48
0.0
370
    50
100
AcDbLine
 10
159.8835194126263
 20
104.2672334994056
 30
0.0
 11
112.3835194126263
 21
104.2672334994055
 31
0.0
  0
LINE
  5
14D
330
21
100
AcDbEntity
  8
Visible Edges
  6
Continuous
 48
0.0
370
    50
100
AcDbLine
 10
112.3835194126263
 20
104.2672334994055
 30
0.0
 11
112.3835194126263
 21
139.0672334994055
 31
0.0
  0
LINE
  5
14E
330
21
100
AcDbEntity
  8
Visible Edges
  6
Continuous
 48
0.0
370
    50
100
AcDbLine
 10
112.3835194126263
 20
139.0672334994055
 30
0.0
 11
159.8835194126263
 21
139.0672334994055
 31
0.0
  0
DIMENSION
  5
14F
330
21
100
AcDbEntity
  8
Dimensions
  6
Continuous
 48
0.0
370
    25
100
AcDbDimension
  2
*D6
 10
159.8835194126263
 20
151.5708025281096
 30
0.0
 11
134.7617961097902
 21
151.5708025281096
 31
0.0
 70
   160
  1
<>
 71
     5
 42
47.5
  3
MM-ANSI-03
100
AcDbAlignedDimension
 13
112.3835194126263
 23
139.0672334994055
 33
0.0
 14
159.8835194126263
 24
139.0672334994055
 34
0.0
 50
180.0
100
AcDbRotatedDimension
1001
ACAD
1000
DSTYLE
1002
{
1070
   271
1070
     2
1070
   340
1005
7B
1070
   272
1070
     2
1070
    47
1040
0.0
1070
    48
1040
0.0
1002
}
  0
DIMENSION
  5
1EA
330
21
100
AcDbEntity
  8
Dimensions
  6
Continuous
 48
0.0
370
    25
100
AcDbDimension
  2
*D7
 10
100.468713538889
 20
139.0672334994055
 30
0.0
 11
100.468713538889
 21
121.1185441594293
 31
0.0
 70
   160
  1
<>
 71
     5
 42
34.80000000000001
  3
MM-ANSI-03
100
AcDbAlignedDimension
 13
112.3835194126263
 23
104.2672334994055
 33
0.0
 14
112.3835194126263
 24
139.0672334994055
 34
0.0
 50
90.0
100
AcDbRotatedDimension
1001
ACAD
1000
DSTYLE
1002
{
1070
   271
1070
     2
1070
   340
1005
7B
1070
   272
1070
     2
1070
    47
1040
0.0
1070
    48
1040
0.0
1002
}
  0
MTEXT
  5
284
330
21
100
AcDbEntity
  8
Text
  6
Continuous
370
     5
100
AcDbMText
 10
47.52019404941755
 20
61.31140610202117
 30
0.0
 40
3.499999940395355
 41
97.54650115966796
 71
     1
 72
     1
  1
{\fArial|b0|i0;\W1.00;\H3.5000;\lMATERIAL: 3/16" C.R. STEEL\PALL DIMENSIONS IN MILLIMETERS U.O.N.}
  7
DEFAULT-ANSI
 73
     2
 44
0.9442214965820312
1001
ACAD
1000
MTEXTBEGIN
1070
    73
1070
     2
1070
    44
1040
0.9442214965820312
1070
    74
1070
     0
1000
MTEXTEND
  0
MTEXT
  5
285
330
21
100
AcDbEntity
  8
Text
  6
Continuous
370
     5
100
AcDbMText
 10
212.4013350503106
 20
27.29266702349543
 30
0.0
 40
2.5
 41
41.34527206420898
 71
     1
 72
     1
  1
{\fArial|b0|i0;\W1.00;\H2.5000;\lTBIRD SHOCK ADAPTER\PGUSSET}
  7
DEFAULT-ANSI
 73
     2
 44
0.9442214965820312
1001
ACAD
1000
MTEXTBEGIN
1070
    73
1070
     2
1070
    44
1040
0.9442214965820312
1070
    74
1070
     0
1000
MTEXTEND
  0
ENDSEC
  0
SECTION
  2
OBJECTS
  0
DICTIONARY
  5
C
330
0
100
AcDbDictionary
281
     1
  3
ACAD_COLOR
350
1C
  3
ACAD_GROUP
350
D
  3
ACAD_LAYOUT
350
1A
  3
ACAD_MATERIAL
350
1B
  3
ACAD_MLINESTYLE
350
17
  3
ACAD_PLOTSETTINGS
350
19
  3
ACAD_PLOTSTYLENAME
350
E
  3
ACDBHEADERROUNDTRIPXREC
350
2A5
  3
AcDbVariableDictionary
350
2A0
  3
DWGPROPS
350
2A4
  0
DICTIONARY
  5
1C
102
{ACAD_REACTORS
330
C
102
}
330
C
100
AcDbDictionary
281
     1
  0
DICTIONARY
  5
D
102
{ACAD_REACTORS
330
C
102
}
330
C
100
AcDbDictionary
281
     1
  0
DICTIONARY
  5
1A
102
{ACAD_REACTORS
330
C
102
}
330
C
100
AcDbDictionary
281
     1
  3
Layout1
350
20
  3
Layout2
350
28
  3
Model
350
24
  0
DICTIONARY
  5
1B
102
{ACAD_REACTORS
330
C
102
}
330
C
100
AcDbDictionary
281
     1
  0
DICTIONARY
  5
17
102
{ACAD_REACTORS
330
C
102
}
330
C
100
AcDbDictionary
281
     1
  3
Standard
350
18
  0
DICTIONARY
  5
19
102
{ACAD_REACTORS
330
C
102
}
330
C
100
AcDbDictionary
281
     1
  0
ACDBDICTIONARYWDFLT
  5
E
102
{ACAD_REACTORS
330
C
102
}
330
C
100
AcDbDictionary
281
     1
  3
Normal
350
F
100
AcDbDictionaryWithDefault
340
F
  0
DICTIONARY
  5
2A5
102
{ACAD_REACTORS
330
C
102
}
330
C
100
AcDbDictionary
281
     1
  3
COLORDICT
350
2A7
  3
MATERIALDICT
350
2A6
  0
DICTIONARY
  5
2A0
102
{ACAD_REACTORS
330
C
102
}
330
C
100
AcDbDictionary
281
     1
  3
DIMASSOC
350
2A2
  3
HIDETEXT
350
2A1
  3
PROJECTNAME
350
2A3
  0
XRECORD
  5
2A4
102
{ACAD_REACTORS
330
C
102
}
330
C
100
AcDbXrecord
280
     1
  1
DWGPROPS COOKIE
  2

  3

  4
Chuck Warren
  6

  7

  8

  9

300
=
301
=
302
=
303
=
304
=
305
=
306
=
307
=
308
=
309
=
 40
0.0000374421296296
 41
2453891.87706794
 42
2453891.87706794
  1

 90
        0
  0
LAYOUT
  5
20
102
{ACAD_XDICTIONARY
360
2A8
102
}
102
{ACAD_REACTORS
330
1A
102
}
330
1A
100
AcDbPlotSettings
  1

  2

  4

  6

 40
0.0
 41
0.0
 42
0.0
 43
0.0
 44
0.0
 45
0.0
 46
0.0
 47
0.0
 48
0.0
 49
0.0
140
0.0
141
0.0
142
1.0
143
1.0
 70
   688
 72
     0
 73
     0
 74
     5
  7

 75
    16
147
1.0
148
0.0
149
0.0
100
AcDbLayout
  1
Layout1
 70
     1
 71
     1
 10
0.0
 20
0.0
 11
354.838
 21
274.193
 12
0.0
 22
0.0
 32
0.0
 14
0.0
 24
0.0
 34
0.0
 15
354.838
 25
274.193
 35
0.0
146
0.0
 13
0.0
 23
0.0
 33
0.0
 16
1.0
 26
0.0
 36
0.0
 17
0.0
 27
1.0
 37
0.0
 76
     0
330
1D
  0
LAYOUT
  5
28
102
{ACAD_XDICTIONARY
360
2AC
102
}
102
{ACAD_REACTORS
330
1A
102
}
330
1A
100
AcDbPlotSettings
  1

  2

  4

  6

 40
0.0
 41
0.0
 42
0.0
 43
0.0
 44
0.0
 45
0.0
 46
0.0
 47
0.0
 48
0.0
 49
0.0
140
0.0
141
0.0
142
1.0
143
1.0
 70
   688
 72
     0
 73
     0
 74
     5
  7

 75
    16
147
1.0
148
0.0
149
0.0
100
AcDbLayout
  1
Layout2
 70
     1
 71
     2
 10
0.0
 20
0.0
 11
12.0
 21
9.0
 12
0.0
 22
0.0
 32
0.0
 14
0.0
 24
0.0
 34
0.0
 15
0.0
 25
0.0
 35
0.0
146
0.0
 13
0.0
 23
0.0
 33
0.0
 16
1.0
 26
0.0
 36
0.0
 17
0.0
 27
1.0
 37
0.0
 76
     0
330
25
  0
LAYOUT
  5
24
102
{ACAD_XDICTIONARY
360
2AA
102
}
102
{ACAD_REACTORS
330
1A
102
}
330
1A
100
AcDbPlotSettings
  1

  2

  4

  6

 40
0.0
 41
0.0
 42
0.0
 43
0.0
 44
0.0
 45
0.0
 46
0.0
 47
0.0
 48
0.0
 49
0.0
140
0.0
141
0.0
142
1.0
143
1.0
 70
  1712
 72
     0
 73
     0
 74
     0
  7

 75
     0
147
1.0
148
0.0
149
0.0
100
AcDbLayout
  1
Model
 70
     1
 71
     0
 10
0.0
 20
0.0
 11
12.0
 21
9.0
 12
0.0
 22
0.0
 32
0.0
 14
0.0
 24
0.0
 34
0.0
 15
0.0
 25
0.0
 35
0.0
146
0.0
 13
0.0
 23
0.0
 33
0.0
 16
1.0
 26
0.0
 36
0.0
 17
0.0
 27
1.0
 37
0.0
 76
     0
330
21
  0
MLINESTYLE
  5
18
102
{ACAD_REACTORS
330
17
102
}
330
17
100
AcDbMlineStyle
  2
STANDARD
 70
     0
  3

 62
   256
 51
90.0
 52
90.0
 71
     2
 49
0.5
 62
   256
  6
BYLAYER
 49
-0.5
 62
   256
  6
BYLAYER
  0
ACDBPLACEHOLDER
  5
F
102
{ACAD_REACTORS
330
E
102
}
330
E
  0
XRECORD
  5
2A7
102
{ACAD_REACTORS
330
2A5
102
}
330
2A5
100
AcDbXrecord
280
     1
340
1C
  0
XRECORD
  5
2A6
102
{ACAD_REACTORS
330
2A5
102
}
330
2A5
100
AcDbXrecord
280
     1
340
1B
  0
DICTIONARYVAR
  5
2A2
102
{ACAD_REACTORS
330
2A0
102
}
330
2A0
100
DictionaryVariables
280
     0
  1
1
  0
DICTIONARYVAR
  5
2A1
102
{ACAD_REACTORS
330
2A0
102
}
330
2A0
100
DictionaryVariables
280
     0
  1
1
  0
DICTIONARYVAR
  5
2A3
102
{ACAD_REACTORS
330
2A0
102
}
330
2A0
100
DictionaryVariables
280
     0
  1

  0
DICTIONARY
  5
2A8
330
20
100
AcDbDictionary
280
     1
281
     1
  3
ACAD_XREC_ROUNDTRIP
360
2A9
  0
DICTIONARY
  5
2AC
330
28
100
AcDbDictionary
280
     1
281
     1
  3
ACAD_XREC_ROUNDTRIP
360
2AD
  0
DICTIONARY
  5
2AA
330
24
100
AcDbDictionary
280
     1
281
     1
  3
ACAD_XREC_ROUNDTRIP
360
2AB
  0
XRECORD
  5
2A9
102
{ACAD_REACTORS
330
2A8
102
}
330
2A8
100
AcDbXrecord
280
     1
102
SHADEPLOT
 70
     0
102
SHADEPLOTRESLEVEL
 70
     2
102
SHADEPLOTCUSTOMDPI
 70
   300
  0
XRECORD
  5
2AD
102
{ACAD_REACTORS
330
2AC
102
}
330
2AC
100
AcDbXrecord
280
     1
102
SHADEPLOT
 70
     0
102
SHADEPLOTRESLEVEL
 70
     2
102
SHADEPLOTCUSTOMDPI
 70
   300
  0
XRECORD
  5
2AB
102
{ACAD_REACTORS
330
2AA
102
}
330
2AA
100
AcDbXrecord
280
     1
102
SHADEPLOT
 70
     0
102
SHADEPLOTRESLEVEL
 70
     2
102
SHADEPLOTCUSTOMDPI
 70
   300
  0
ENDSEC
  0
EOF
